Today is a free download without charge Download

Лесная история (Лев Позднеев) [1956, СССР, Рисованный мультфильм, WEBRip]

Reply to topic
 
Author
Message

Omen ®

Longevity: 7 years 11 months

Posts: 181087

Торрент-статистика

Post 09-Feb-2016 00:33

[Quote]

Лесная история
Страна: СССР
Жанр: Рисованный мультфильм
Продолжительность: 00:09:24
Год выпуска: 1956
Русские субтитры: нет
Режиссёр: Лев Позднеев
Описание: Сказка-шутка для малышей о необходимости чистить зубы
Доп. информация: "Союзмультфильм"
сценаристы Александр Иванов, Сергей Скворцов
художники-постановщики М. Скобелев, Валентин Лалаянц
xудожники Дмитрий Анпилов, Лев Аркадьев, И. Прокофьева, Е. Танненберг
аниматоры Дмитрий Белов, Фаина Епифанова, Елизавета Комова, Борис Корнеев, Татьяна Федорова, Татьяна Таранович, Александр Пекарь, Лидия Резцова
оператор Елена Петрова
композитор Моисей Вайнберг
звукооператор Борис Фильчиков
текст песен (стихов) Лев Позднеев
Качество: WEBRip
Формат: AVI
Видео: 704x528 (1.33:1), 25 fps, XviD build 50 ~1594 kbps avg, 0.17 bit/pixel
Аудио: 44.100 kHz, MPEG Layer 3, 2 ch, ~192.00 kbps avg
Субтитры: нет

Подробные технические данные

Format : AVIFormat/Info : Audio Video InterleaveFile size : 121 MiBDuration : 9mn 24sOverall bit rate : 1 799 KbpsWriting application : MEncoder SVN-r30881(20100311-gcc4.3.3)Writing library : MPlayer
VideoID : 0Format : MPEG-4 VisualFormat profile : Advanced [email protected] settings, BVOP : 2Format settings, QPel : NoFormat settings, GMC : No warppointsFormat settings, Matrix : Default (H.263)Codec ID : XVIDCodec ID/Hint : XviDDuration : 9mn 24sBit rate : 1 595 KbpsWidth : 704 pixelsHeight : 528 pixelsDisplay aspect ratio : 5:4Original display aspect ratio : 4:3Frame rate : 25.000 fpsColor space : YUVChroma subsampling : 4:2:0Bit depth : 8 bitsScan type : ProgressiveCompression mode : LossyBits/(Pixel*Frame) : 0.172Stream size : 107 MiB (89%)Writing library : XviD 1.2.1 (UTC 2008-12-04)
AudioID : 1Format : MPEG AudioFormat version : Version 1Format profile : Layer 3Mode : Joint stereoMode extension : MS StereoCodec ID : 55Codec ID/Hint : MP3Duration : 9mn 24sBit rate mode : ConstantBit rate : 192 KbpsChannel(s) : 2 channelsSampling rate : 44.1 KHzCompression mode : LossyDelay relative to video : 40msStream size : 12.9 MiB (11%)Alignment : Aligned on interleavesInterleave, duration : 26 ms (0.65 video frame)Interleave, preload duration : 522 msWriting library : LAME3.98

Скриншоты

Other forum [Profile] [PM]
Display posts from previous:    
Reply to topic

The time now is: Today 19:52

All times are GMT + 3 Hours



You cannot post new topics in this forum
You cannot reply to topics in this forum
You cannot edit your posts in this forum
You cannot delete your posts in this forum
You cannot vote in polls in this forum
You cannot attach files in this forum
You cannot download files in this forum