Today is a free download without charge Download

Трилогия о Максиме: Юность Максима (1934), Возвращение Максима (1937), Выборгская сторона (1938) DVDRip [H.264]

Reply to topic
 
Author
Message

Region_13 ®

Gender:

Longevity: 7 years 8 months

Posts: 782

Location: Мальдивы

Торрент-статистика

Post 08-Feb-2016 15:21

[Quote]

Трилогия о Максиме: Юность Максима (1934), Возвращение Максима (1937), Выборгская сторона (1938) DVDRip [H.264] - Производство: СССР, Ленфильм
Жанр: Драма, Военный, История
Режиссер: Григорий Козинцев, Леонид Трауберг
Актеры: Борис Чирков, Валентина Кибардина, Михаил Тарханов, Степан Каюков, Борис Блинов, Александр Кулаков, С. Леонтьев, М. Шелковский, Владимир Сладкопевцев, Николай Крючков...
Описание:
Историко-революционная трилогия о Максиме, парне с Нарвской заставы, ставшем профессиональным революционером.
Продолжительность: 01:31:17 + 01:39:15 + 01:49:24
Качество видео: DVDRip
Субтитры: Отсутствуют
Видео: AVC/H.264, 734x576 - 746x572, ~2397 kbps
Аудио: AC3, 2 ch, 192 kbps, CBR

Юность Максима (1934)

Юность Максима (1934) - Производство: СССР, Ленфильм
Жанр: Драма, Военный, История
Режиссер: Григорий Козинцев, Леонид Трауберг
Актеры: Борис Чирков, Валентина Кибардина, Михаил Тарханов, Степан Каюков, Борис Блинов, Александр Кулаков, С. Леонтьев, М. Шелковский, Владимир Сладкопевцев
Описание:
Первый фильм историко-революционной трилогии о Максиме, ставшем профессиональным революционером.
1910 год. В Петербурге живут три товариша - Андрей, Дема и Максим. После того как на заводе Андрей погибает, Максим связывается с подпольщиками через учительницу Наташу. За революционную деятельность вместе с Демой попадает в тюрьму. После казни последнего, Максим становится профессиональным революционером...


Возраст: 0+ (для любой зрительской аудитории)
Дата выхода DVD/Blu-ray релиза: 17 марта 2005, «Союз-Видео»

Продолжительность: 01:31:17
Качество видео: DVDRip
Видео: AVC/H.264, [email protected], ~2397 kbps
Аудио: AC3, 2 ch, 192 kbps, CBR

Mediainfo:

Код:
Общее
Уникальный идентификатор                 : 193819642188877033599820469399178656881 (0x91D04E26300BF3478395D1BE19BB3C71)
Полное имя                               : D:\00-Максим-трилогия-NNM\01-Юность Максима-DVDRip-MG-NNM.mkv
Формат                                   : Matroska
Версия формата                           : Version 4 / Version 2
Размер файла                             : 1,65 Гбайт
Продолжительность                        : 1 ч. 31 м.
Общий поток                              : 2591 Кбит/сек
Дата кодирования                         : UTC 2016-01-07 20:31:29
Программа кодирования                    : mkvmerge v8.7.0 ('All of the above') 64bit
Библиотека кодирования                   : libebml v1.3.3 + libmatroska v1.4.4
Видео
Идентификатор                            : 1
Формат                                   : AVC
Формат/Информация                        : Advanced Video Codec
Профиль формата                          : [url=mailto:[email protected]][email protected][/url]
Параметр CABAC формата                   : Да
Параметр ReFrames формата                : 14 кадров
Идентификатор кодека                     : V_MPEG4/ISO/AVC
Продолжительность                        : 1 ч. 31 м.
Битрейт                                  : 2397 Кбит/сек
Ширина                                   : 688 пикселей
Высота                                   : 576 пикселей
Соотношение сторон                       : 1,274
Режим частоты кадров                     : Постоянный
Частота кадров                           : 25,000 кадров/сек
Цветовое пространство                    : YUV
Субдискретизация насыщенности            : 4:2:0
Битовая глубина                          : 8 бит
Тип развёртки                            : Прогрессивная
Бит/(Пиксели*Кадры)                      : 0.242
Размер потока                            : 1,53 Гбайт (93%)
Заголовок                                : FomaTash for спам
Библиотека кодирования                   : x264 core 146 r2538 121396c
Настройки программы                      : cabac=1 / ref=14 / deblock=1:-1:-1 / analyse=0x3:0x133 / me=umh / subme=9 / psy=1 / psy_rd=1.00:0.15 / mixed_ref=1 / me_range=32 / chroma_me=1 / trellis=2 / 8x8dct=1 / cqm=0 / deadzone=21,11 / fast_pskip=1 / chroma_qp_offset=-3 / threads=6 / lookahead_threads=1 / sliced_threads=0 / nr=0 / decimate=0 / interlaced=0 / bluray_compat=0 / constrained_intra=0 / bframes=9 / b_pyramid=2 / b_adapt=2 / b_bias=0 / direct=3 / weightb=1 / open_gop=0 / weightp=2 / keyint=240 / keyint_min=23 / scenecut=40 / intra_refresh=0 / rc_lookahead=40 / rc=2pass / mbtree=0 / bitrate=2397 / ratetol=1.0 / qcomp=0.60 / qpmin=10 / qpmax=51 / qpstep=4 / cplxblur=20.0 / qblur=0.5 / vbv_maxrate=50000 / vbv_bufsize=62500 / nal_hrd=none / filler=0 / ip_ratio=1.40 / pb_ratio=1.30 / aq=1:1.00
Язык                                     : Russian
Default                                  : Да
Forced                                   : Нет
Аудио
Идентификатор                            : 2
Формат                                   : AC-3
Формат/Информация                        : Audio Coding 3
Расширение режима                        : CM (complete main)
Параметр Endianness формата              : Big
Идентификатор кодека                     : A_AC3
Продолжительность                        : 1 ч. 31 м.
Вид битрейта                             : Постоянный
Битрейт                                  : 192 Кбит/сек
Каналы                                   : 2 канала
Расположение каналов                     : Front: L R
Частота                                  : 48,0 КГц
Частота кадров                           : 31,250 кадров/сек (1536 spf)
Метод сжатия                             : С потерями
Задержка видео                           : 200 мс.
Размер потока                            : 125 Мбайт (7%)
Заголовок                                : AC3-2 канала
Язык                                     : Russian
Default                                  : Да
Forced                                   : Нет

x264.log

--[Information] [07.01.2016 20:37:14] Standard error stream
---[Information] [07.01.2016 20:37:20] raw [info]: 688x576p 5733:5375 @ 25/1 fps (cfr)
---[Information] [07.01.2016 20:37:20] x264 [info]: using SAR=5733/5375
---[Information] [07.01.2016 20:37:20] x264 [info]: using cpu capabilities: MMX2 SSE2Fast SSSE3 SSE4.2
---[Information] [07.01.2016 20:37:20] x264 [info]: profile High, level 4.1
---[Information] [08.01.2016 0:01:13] x264 [info]: frame I:700 Avg QP:18.45 size: 41835
---[Information] [08.01.2016 0:01:13] x264 [info]: frame P:27979 Avg QP:20.58 size: 20747
---[Information] [08.01.2016 0:01:13] x264 [info]: frame B:108247 Avg QP:22.64 size: 9528
---[Information] [08.01.2016 0:01:13] x264 [info]: consecutive B-frames: 1.1% 1.1% 5.5% 24.4% 19.9% 30.0% 9.7% 5.4% 2.3% 0.7%
---[Information] [08.01.2016 0:01:13] x264 [info]: mb I I16..4: 8.9% 69.9% 21.2%
---[Information] [08.01.2016 0:01:13] x264 [info]: mb P I16..4: 1.6% 17.7% 2.2% P16..4: 47.0% 22.4% 8.4% 0.2% 0.0% skip: 0.5%
---[Information] [08.01.2016 0:01:13] x264 [info]: mb B I16..4: 0.1% 1.7% 0.2% B16..8: 45.9% 13.6% 2.2% direct:17.1% skip:19.1% L0:47.6% L1:42.2% BI:10.2%
---[Information] [08.01.2016 0:01:13] x264 [info]: 8x8 transform intra:81.5% inter:49.8%
---[Information] [08.01.2016 0:01:13] x264 [info]: direct mvs spatial:99.0% temporal:1.0%
---[Information] [08.01.2016 0:01:13] x264 [info]: coded y,uvDC,uvAC intra: 95.0% 13.3% 3.1% inter: 52.5% 6.1% 0.3%
---[Information] [08.01.2016 0:01:13] x264 [info]: i16 v,h,dc,p: 19% 24% 18% 38%
---[Information] [08.01.2016 0:01:13] x264 [info]: i8 v,h,dc,ddl,ddr,vr,hd,vl,hu: 10% 11% 10% 7% 11% 11% 13% 11% 17%
---[Information] [08.01.2016 0:01:13] x264 [info]: i4 v,h,dc,ddl,ddr,vr,hd,vl,hu: 9% 13% 4% 8% 12% 12% 14% 11% 17%
---[Information] [08.01.2016 0:01:13] x264 [info]: i8c dc,h,v,p: 79% 15% 6% 1%
---[Information] [08.01.2016 0:01:13] x264 [info]: Weighted P-Frames: Y:67.3% UV:0.7%
---[Information] [08.01.2016 0:01:13] x264 [info]: ref P L0: 32.9% 12.1% 12.3% 8.2% 5.6% 5.4% 4.3% 3.2% 2.6% 2.7% 2.3% 2.4% 2.1% 2.3% 1.6% 0.1%
---[Information] [08.01.2016 0:01:13] x264 [info]: ref B L0: 64.3% 12.6% 5.8% 3.6% 2.7% 2.5% 2.1% 1.5% 1.3% 1.3% 1.2% 0.8% 0.5%
---[Information] [08.01.2016 0:01:13] x264 [info]: ref B L1: 91.9% 8.1%
---[Information] [08.01.2016 0:01:13] x264 [info]: kb/s:2397.11
---[Information] [08.01.2016 0:01:13] encoded 136926 frames, 11.19 fps, 2397.11 kb/s
Скриншоты:
       

Возвращение Максима (1937)

Возвращение Максима (1937) DVDRip [H.264] - Производство: СССР, Ленфильм
Жанр: Драма
Режиссер: Григорий Козинцев, Леонид Трауберг
Актеры: Борис Чирков, Валентина Кибардина, Анатолий Кузнецов, Александр Зражевский, Александр Чистяков, Василий Ванин, Юрий Толубеев, Алексей Бонди, Михаил Жаров, Николай Крючков
Описание:
Вторая серия историко-революционной трилогии об остроумном, лукавом и изобретательном Максиме, посвятившем свою жизнь революции.
Весна 1914 года. В Петербурге — волна забастовок. Но рабочему движению нужен лидер. За нелегкую и опасную работу берется опытный конспиратор, которого даже товарищи знают только по имени — Максим.


Возраст: 6+ (зрителям, достигшим 6 лет)
Дата выхода DVD/Blu-ray релиза: 31 марта 2005, «Союз-Видео»

Продолжительность: 01:39:15
Качество видео: DVDRip
Видео: AVC/H.264, [email protected], ~2518 kbps
Аудио: AC3, 2 ch, 192 kbps, CBR

Mediainfo:

Код:
Общее
Уникальный идентификатор                 : 200539801168485896753880118666090505318 (0x96DE8F9152628A05B5BA2CE896A7E466)
Полное имя                               : D:\00-Максим-трилогия-NNM\02-Возвращение Максима-DVDRip-MG-NNM.mkv
Формат                                   : Matroska
Версия формата                           : Version 4 / Version 2
Размер файла                             : 1,88 Гбайт
Продолжительность                        : 1 ч. 39 м.
Общий поток                              : 2712 Кбит/сек
Дата кодирования                         : UTC 2016-01-11 12:13:58
Программа кодирования                    : mkvmerge v8.8.0 ('Wind at my back') 64bit
Библиотека кодирования                   : libebml v1.3.3 + libmatroska v1.4.4
Видео
Идентификатор                            : 1
Формат                                   : AVC
Формат/Информация                        : Advanced Video Codec
Профиль формата                          : [url=mailto:[email protected]][email protected][/url]
Параметр CABAC формата                   : Да
Параметр ReFrames формата                : 15 кадров
Идентификатор кодека                     : V_MPEG4/ISO/AVC
Продолжительность                        : 1 ч. 39 м.
Битрейт                                  : 2518 Кбит/сек
Ширина                                   : 698 пикселей
Высота                                   : 576 пикселей
Соотношение сторон                       : 1,293
Режим частоты кадров                     : Постоянный
Частота кадров                           : 25,000 кадров/сек
Цветовое пространство                    : YUV
Субдискретизация насыщенности            : 4:2:0
Битовая глубина                          : 8 бит
Тип развёртки                            : Прогрессивная
Бит/(Пиксели*Кадры)                      : 0.251
Размер потока                            : 1,75 Гбайт (93%)
Заголовок                                : FomaTas for спам
Библиотека кодирования                   : x264 core 146 r2538 121396c
Настройки программы                      : cabac=1 / ref=15 / deblock=1:-1:-1 / analyse=0x3:0x133 / me=umh / subme=9 / psy=1 / psy_rd=1.00:0.15 / mixed_ref=1 / me_range=32 / chroma_me=1 / trellis=2 / 8x8dct=1 / cqm=0 / deadzone=21,11 / fast_pskip=1 / chroma_qp_offset=-3 / threads=6 / lookahead_threads=1 / sliced_threads=0 / nr=0 / decimate=0 / interlaced=0 / bluray_compat=0 / constrained_intra=0 / bframes=8 / b_pyramid=2 / b_adapt=2 / b_bias=0 / direct=3 / weightb=1 / open_gop=0 / weightp=2 / keyint=240 / keyint_min=23 / scenecut=40 / intra_refresh=0 / rc_lookahead=40 / rc=2pass / mbtree=0 / bitrate=2518 / ratetol=1.0 / qcomp=0.60 / qpmin=10 / qpmax=51 / qpstep=4 / cplxblur=20.0 / qblur=0.5 / vbv_maxrate=50000 / vbv_bufsize=62500 / nal_hrd=none / filler=0 / ip_ratio=1.40 / pb_ratio=1.30 / aq=1:1.00
Язык                                     : Russian
Default                                  : Да
Forced                                   : Нет
Аудио
Идентификатор                            : 2
Формат                                   : AC-3
Формат/Информация                        : Audio Coding 3
Расширение режима                        : CM (complete main)
Параметр Endianness формата              : Big
Идентификатор кодека                     : A_AC3
Продолжительность                        : 1 ч. 39 м.
Вид битрейта                             : Постоянный
Битрейт                                  : 192 Кбит/сек
Каналы                                   : 2 канала
Расположение каналов                     : Front: L R
Частота                                  : 48,0 КГц
Частота кадров                           : 31,250 кадров/сек (1536 spf)
Метод сжатия                             : С потерями
Задержка видео                           : 24 мс.
Размер потока                            : 136 Мбайт (7%)
Заголовок                                : AC3-2 канала
Язык                                     : Russian
Default                                  : Да
Forced                                   : Нет

x264.log

--[Information] [11.01.2016 12:23:24] Standard error stream
---[Information] [11.01.2016 12:23:31] raw [info]: 698x576p 46548:43625 @ 25/1 fps (cfr)
---[Information] [11.01.2016 12:23:31] x264 [info]: using SAR=46548/43625
---[Information] [11.01.2016 12:23:31] x264 [info]: using cpu capabilities: MMX2 SSE2Fast SSSE3 SSE4.2
---[Information] [11.01.2016 12:23:31] x264 [info]: profile High, level 4.1
---[Information] [11.01.2016 17:02:29] x264 [info]: frame I:743 Avg QP:18.60 size: 32325
---[Information] [11.01.2016 17:02:29] x264 [info]: frame P:28985 Avg QP:20.76 size: 18406
---[Information] [11.01.2016 17:02:29] x264 [info]: frame B:119153 Avg QP:22.77 size: 11051
---[Information] [11.01.2016 17:02:29] x264 [info]: consecutive B-frames: 0.9% 0.8% 4.2% 18.4% 17.9% 41.6% 7.7% 6.0% 2.3%
---[Information] [11.01.2016 17:02:29] x264 [info]: mb I I16..4: 2.3% 91.4% 6.2%
---[Information] [11.01.2016 17:02:29] x264 [info]: mb P I16..4: 0.8% 23.8% 1.0% P16..4: 40.1% 25.6% 8.5% 0.1% 0.0% skip: 0.2%
---[Information] [11.01.2016 17:02:29] x264 [info]: mb B I16..4: 0.1% 3.1% 0.1% B16..8: 41.3% 25.8% 4.5% direct:15.7% skip: 9.2% L0:52.9% L1:40.4% BI: 6.7%
---[Information] [11.01.2016 17:02:29] x264 [info]: 8x8 transform intra:93.2% inter:75.8%
---[Information] [11.01.2016 17:02:29] x264 [info]: direct mvs spatial:98.1% temporal:1.9%
---[Information] [11.01.2016 17:02:29] x264 [info]: coded y,uvDC,uvAC intra: 94.6% 9.0% 0.5% inter: 58.5% 5.8% 0.1%
---[Information] [11.01.2016 17:02:29] x264 [info]: i16 v,h,dc,p: 17% 14% 13% 56%
---[Information] [11.01.2016 17:02:29] x264 [info]: i8 v,h,dc,ddl,ddr,vr,hd,vl,hu: 13% 6% 8% 9% 12% 15% 11% 15% 11%
---[Information] [11.01.2016 17:02:29] x264 [info]: i4 v,h,dc,ddl,ddr,vr,hd,vl,hu: 10% 6% 2% 9% 15% 18% 15% 13% 12%
---[Information] [11.01.2016 17:02:29] x264 [info]: i8c dc,h,v,p: 91% 6% 2% 0%
---[Information] [11.01.2016 17:02:29] x264 [info]: Weighted P-Frames: Y:62.3% UV:1.0%
---[Information] [11.01.2016 17:02:29] x264 [info]: ref P L0: 29.5% 9.7% 12.7% 8.2% 6.5% 5.7% 4.9% 3.4% 3.1% 2.9% 2.7% 2.6% 2.4% 2.3% 2.3% 1.2%
---[Information] [11.01.2016 17:02:29] x264 [info]: ref B L0: 60.0% 12.4% 6.8% 3.9% 3.2% 2.8% 2.5% 1.6% 1.5% 1.4% 1.4% 1.3% 0.8% 0.4%
---[Information] [11.01.2016 17:02:29] x264 [info]: ref B L1: 89.9% 10.1%
---[Information] [11.01.2016 17:02:29] x264 [info]: kb/s:2517.82
---[Information] [11.01.2016 17:02:29] encoded 148881 frames, 8.89 fps, 2517.82 kb/s
Скриншоты:
       

Выборгская сторона (1938)

Выборгская сторона (1938) - Производство: СССР, Ленфильм
Жанр: Драма
Режиссер: Григорий Козинцев, Леонид Трауберг
Актеры: Борис Чирков, Валентина Кибардина, Михаил Жаров, Наталия Ужвий, Юрий Толубеев, Александр Чистяков, Анатолий Кузнецов, Дмитрий Дудников, Борис Жуковский, Леонид Любашевский
Описание:
Третья серия кинотрилогии.
1918 год. Первые месяцы советской власти. Закаленный в боях большевик Максим становится комиссаром Государственного банка. Ему приходится нелегко. В Петрограде голод, толпы людей громят продовольственные склады, рабочие бастуют, а банковские служащие, ненавидящие большевиков, по поддельным документам переводят сотни тысяч рублей за границу.


Возраст: 12+ (зрителям, достигшим 12 лет)
Дата выхода DVD/Blu-ray релиза: 26 мая 2005, «Союз-Видео»

Продолжительность: 01:49:24
Качество видео: DVDRip
Видео: AVC/H.264, [email protected], ~1978 kbps
Аудио: AC3, 2 ch, 192 kbps, CBR

Mediainfo:

Код:
Общее
Уникальный идентификатор                 : 244739400955173588521706008301273126159 (0xB81F18161789890E9DDB3BD77CE0950F)
Полное имя                               : D:\00-Максим-трилогия-NNM\03-Выборгская сторона-DVDRip-MG-NNM.mkv
Формат                                   : Matroska
Версия формата                           : Version 4 / Version 2
Размер файла                             : 1,66 Гбайт
Продолжительность                        : 1 ч. 49 м.
Общий поток                              : 2172 Кбит/сек
Дата кодирования                         : UTC 2016-01-11 17:56:12
Программа кодирования                    : mkvmerge v8.8.0 ('Wind at my back') 64bit
Библиотека кодирования                   : libebml v1.3.3 + libmatroska v1.4.4
Видео
Идентификатор                            : 1
Формат                                   : AVC
Формат/Информация                        : Advanced Video Codec
Профиль формата                          : [url=mailto:[email protected]][email protected][/url]
Параметр CABAC формата                   : Да
Параметр ReFrames формата                : 14 кадров
Идентификатор кодека                     : V_MPEG4/ISO/AVC
Продолжительность                        : 1 ч. 49 м.
Битрейт                                  : 1978 Кбит/сек
Ширина                                   : 700 пикселей
Высота                                   : 572 пикселя
Соотношение сторон                       : 4:3
Соотношение сторон в оригинале           : 4:3
Режим частоты кадров                     : Постоянный
Частота кадров                           : 25,000 кадров/сек
Цветовое пространство                    : YUV
Субдискретизация насыщенности            : 4:2:0
Битовая глубина                          : 8 бит
Тип развёртки                            : Прогрессивная
Бит/(Пиксели*Кадры)                      : 0.198
Размер потока                            : 1,51 Гбайт (91%)
Заголовок                                : FomaTash for спам
Библиотека кодирования                   : x264 core 146 r2538 121396c
Настройки программы                      : cabac=1 / ref=14 / deblock=1:-1:-1 / analyse=0x3:0x133 / me=umh / subme=9 / psy=1 / psy_rd=1.00:0.15 / mixed_ref=1 / me_range=32 / chroma_me=1 / trellis=2 / 8x8dct=1 / cqm=0 / deadzone=21,11 / fast_pskip=1 / chroma_qp_offset=-3 / threads=6 / lookahead_threads=1 / sliced_threads=0 / nr=0 / decimate=0 / interlaced=0 / bluray_compat=0 / constrained_intra=0 / bframes=8 / b_pyramid=2 / b_adapt=2 / b_bias=0 / direct=3 / weightb=1 / open_gop=0 / weightp=2 / keyint=240 / keyint_min=23 / scenecut=40 / intra_refresh=0 / rc_lookahead=40 / rc=2pass / mbtree=0 / bitrate=1978 / ratetol=1.0 / qcomp=0.60 / qpmin=10 / qpmax=51 / qpstep=4 / cplxblur=20.0 / qblur=0.5 / vbv_maxrate=50000 / vbv_bufsize=62500 / nal_hrd=none / filler=0 / ip_ratio=1.40 / pb_ratio=1.30 / aq=1:1.00
Язык                                     : Russian
Default                                  : Да
Forced                                   : Нет
Аудио
Идентификатор                            : 2
Формат                                   : AC-3
Формат/Информация                        : Audio Coding 3
Расширение режима                        : CM (complete main)
Параметр Endianness формата              : Big
Идентификатор кодека                     : A_AC3
Продолжительность                        : 1 ч. 49 м.
Вид битрейта                             : Постоянный
Битрейт                                  : 192 Кбит/сек
Каналы                                   : 2 канала
Расположение каналов                     : Front: L R
Частота                                  : 48,0 КГц
Частота кадров                           : 31,250 кадров/сек (1536 spf)
Метод сжатия                             : С потерями
Размер потока                            : 150 Мбайт (9%)
Заголовок                                : AC3-2 канала
Язык                                     : Russian
Default                                  : Да
Forced                                   : Нет

x264.log

--[Information] [11.01.2016 17:54:58] Standard error stream
---[Information] [11.01.2016 17:55:05] raw [info]: 700x572p 37323:35000 @ 25/1 fps (cfr)
---[Information] [11.01.2016 17:55:05] x264 [info]: using SAR=37323/35000
---[Information] [11.01.2016 17:55:05] x264 [info]: using cpu capabilities: MMX2 SSE2Fast SSSE3 SSE4.2
---[Information] [11.01.2016 17:55:05] x264 [info]: profile High, level 4.1
---[Information] [11.01.2016 22:15:18] x264 [info]: frame I:824 Avg QP:17.81 size: 29092
---[Information] [11.01.2016 22:15:18] x264 [info]: frame P:29692 Avg QP:19.83 size: 15205
---[Information] [11.01.2016 22:15:18] x264 [info]: frame B:133587 Avg QP:21.67 size: 8590
---[Information] [11.01.2016 22:15:18] x264 [info]: consecutive B-frames: 0.8% 0.6% 3.2% 9.2% 9.1% 63.7% 5.3% 1.9% 6.1%
---[Information] [11.01.2016 22:15:18] x264 [info]: mb I I16..4: 3.8% 87.7% 8.5%
---[Information] [11.01.2016 22:15:18] x264 [info]: mb P I16..4: 1.7% 22.3% 1.1% P16..4: 46.8% 20.4% 7.2% 0.0% 0.0% skip: 0.4%
---[Information] [11.01.2016 22:15:18] x264 [info]: mb B I16..4: 0.3% 2.7% 0.1% B16..8: 46.6% 17.9% 2.5% direct:16.1% skip:13.9% L0:53.9% L1:39.9% BI: 6.2%
---[Information] [11.01.2016 22:15:18] x264 [info]: 8x8 transform intra:88.6% inter:73.1%
---[Information] [11.01.2016 22:15:18] x264 [info]: direct mvs spatial:98.6% temporal:1.4%
---[Information] [11.01.2016 22:15:18] x264 [info]: coded y,uvDC,uvAC intra: 90.5% 44.6% 3.8% inter: 49.7% 28.2% 0.7%
---[Information] [11.01.2016 22:15:18] x264 [info]: i16 v,h,dc,p: 14% 12% 7% 67%
---[Information] [11.01.2016 22:15:18] x264 [info]: i8 v,h,dc,ddl,ddr,vr,hd,vl,hu: 14% 7% 8% 8% 11% 14% 11% 14% 13%
---[Information] [11.01.2016 22:15:18] x264 [info]: i4 v,h,dc,ddl,ddr,vr,hd,vl,hu: 14% 8% 3% 8% 14% 17% 14% 12% 12%
---[Information] [11.01.2016 22:15:18] x264 [info]: i8c dc,h,v,p: 37% 44% 16% 3%
---[Information] [11.01.2016 22:15:18] x264 [info]: Weighted P-Frames: Y:53.4% UV:0.0%
---[Information] [11.01.2016 22:15:18] x264 [info]: ref P L0: 30.2% 10.0% 12.6% 8.4% 6.6% 5.7% 4.9% 3.5% 3.2% 3.0% 2.8% 2.7% 2.5% 2.5% 1.4% 0.0%
---[Information] [11.01.2016 22:15:18] x264 [info]: ref B L0: 58.7% 13.1% 7.2% 4.1% 3.5% 2.9% 2.7% 1.8% 1.7% 1.6% 1.5% 1.0% 0.4%
---[Information] [11.01.2016 22:15:18] x264 [info]: ref B L1: 89.2% 10.8%
---[Information] [11.01.2016 22:15:18] x264 [info]: kb/s:1977.98
---[Information] [11.01.2016 22:15:18] encoded 164103 frames, 10.51 fps, 1977.98 kb/s
Скриншоты:
       
Производство: СССР, Ленфильм
Жанр: Драма, Военный, История
Режиссер: Григорий Козинцев, Леонид Трауберг
Актеры: Борис Чирков, Валентина Кибардина, Михаил Тарханов, Степан Каюков, Борис Блинов, Александр Кулаков, С. Леонтьев, М. Шелковский, Владимир Сладкопевцев, Николай Крючков...
Описание: Историко-революционная трилогия о Максиме, парне с Нарвской заставы, ставшем профессиональным революционером.
Продолжительность: 01:31:17 + 01:39:15 + 01:49:24

_________________
Other forum [Profile] [PM]
Display posts from previous:    
Reply to topic

The time now is: Today 03:30

All times are GMT + 3 Hours



You cannot post new topics in this forum
You cannot reply to topics in this forum
You cannot edit your posts in this forum
You cannot delete your posts in this forum
You cannot vote in polls in this forum
You cannot attach files in this forum
You cannot download files in this forum