Today is a free download without charge Download

Близнецы - драконы (Полная китайская версия) / Shuang Long Hui (HK Full Version) (Ринго Лам, Цуй Харк) [1992, боевик, комедия, BDRip] MVO

Reply to topic
 
Author
Message

DED ®

Longevity: 7 years 11 months

Posts: 3943

Торрент-статистика

Post 08-Feb-2016 10:39

[Quote]

--Близнецы - драконы / Shuang Long Hui-«Два Джеки Чана лучше, чем один!»--
  • Год выпуска: 1992
  • Страна: Гонконг / Dimension Films, Golden Way Films Ltd., Hong Kong Film Directors Guild
  • Жанр: боевик, комедия
  • Продолжительность: 01:44:42
  • Перевод: Профессиональный (многоголосый закадровый)-
  • Режиссёр: Ринго Лам, Цуй Харк-
  • В ролях: Джеки Чан, Мэгги Чун, Тедди Робин Кван, Энтони Чан, Филип Чань, Сильвия Чан, Альфред Чун, Чи Люн «Джэйкоб» Чунг, Танг Чо «Джо» Чунг, Дэвид Чианг...-
  • Джеки Чан исполняет сразу две роли — двух абсолютно одинаковых близнецов, разлученных при рождении и оказавшихся в разных семьях и по разные стороны Тихого океана.
    Один из близнецов — специалист по боевым искусствам, хулиган и задира, работает автомехаником в гараже отеля, в котором останавливается во время гастролей в Гонконге другой — знаменитый музыкант всемирно известный дирижер из Нью-Йорка. Когда они случайно встречаются, начинается невероятная заварушка!
    -
  • Премьера в мире: 15 января 1992--
  • --
  • Качество видео: BDRip
  • Формат видео: AVI
  • Видео кодек: XviD
  • Аудио кодек: AC3
  • Видео: 720x304 (2.35:1), 23.976 fps, XviD MPEG-4, ~1798 kbps avg, 0.343 bit/pixel
  • Аудио: 48.0 kHz, AC3 Dolby Digital, 2/0 (L,R) ch, ~192.00 kbps avg
  • Субтитры: нет
--

Media Info

General
Complete name : W:\O.S.A.\Торренты\Завершенные торренты\Twin Dragons.1992.BD-Rip.XviD.1,46Gb.AC3..avi
Format : AVI
Format/Info : Audio Video Interleave
File size : 1.46 GiB
Duration : 1h 44mn
Overall bit rate : 2 000 Kbps
Writing application : VirtualDubMod 1.5.10.3 | www.virtualdub-fr.org || (build 2550/release)
Writing library : VirtualDubMod build 2550/release
Video
ID : 0
Format : MPEG-4 Visual
Format profile : Advanced [email protected]
Format settings, BVOP : 1
Format settings, QPel : No
Format settings, GMC : No warppoints
Format settings, Matrix : Custom
Codec ID : XVID
Codec ID/Hint : XviD
Duration : 1h 44mn
Bit rate : 1 798 Kbps
Width : 720 pixels
Height : 304 pixels
Display aspect ratio : 2.35:1
Frame rate : 23.976 fps
Color space : YUV
Chroma subsampling : 4:2:0
Bit depth : 8 bits
Scan type : Progressive
Compression mode : Lossy
Bits/(Pixel*Frame) : 0.343
Stream size : 1.32 GiB (90%)
Writing library : XviD 65
Audio
ID : 1
Format : AC-3
Format/Info : Audio Coding 3
Mode extension : CM (complete main)
Codec ID : 2000
Duration : 1h 44mn
Bit rate mode : Constant
Bit rate : 192 Kbps
Channel(s) : 2 channels
Channel positions : Front: L R
Sampling rate : 48.0 KHz
Bit depth : 16 bits
Compression mode : Lossy
Stream size : 144 MiB (10%)
Alignment : Split accross interleaves
Interleave, duration : 42 ms (1.00 video frame)
Interleave, preload duration : 500 ms
--        -- --
Other forum [Profile] [PM]

Анатолий Солошенко

Longevity: 5 years 4 months

Posts: 1

Нарушений: 1

Торрент-статистика

Post 14-Jun-2016 16:04 (after 4 months 6 days)

[Quote]

а ведь действительно, раньше как то в фильмы больше смысла вкладывали, а сейчас больше спецэффектов, недавно смотрел драконов на тв на каналах [ссылка удалена] классный фильм, джеки там молодец
!Геннадич wrote:

согласно https://darkos.club/viewtopic.php?t=3660 Правил пользования ресурсом, запрещается: Публиковать ссылки или названия сторонних ресурсов
Other forum [Profile] [PM]
Display posts from previous:    
Reply to topic

The time now is: Today 08:31

All times are GMT + 3 Hours



You cannot post new topics in this forum
You cannot reply to topics in this forum
You cannot edit your posts in this forum
You cannot delete your posts in this forum
You cannot vote in polls in this forum
You cannot attach files in this forum
You cannot download files in this forum