Today is a free download without charge Download

Пиковая дама: Черный обряд (Святослав Подгаевский) [2015, Ужасы, HDTV 1080i]

Reply to topic
 
Author
Message

Omen ®

Longevity: 8 years 10 months

Posts: 181086

Торрент-статистика

Post 07-Feb-2016 15:00

[Quote]

Пиковая дама: Черный обряд
Страна: Россия
Студия: Вольга, Ультра
Жанр: Ужасы
Год выпуска: 2015
Продолжительность: 01:28:57
Режиссер: Святослав Подгаевский
В ролях:
Алина Бабак
Игорь Хрипунов
Владимир Селезнев
Валерия Дмитриева
Сергей Походаев
Евгения Лоза
Валентин Садики
Мария Фомина
Максим Стоянов
Наталья Домерецкая
Описание: Пиковая Дама не придет в карты. А зеркало не покажет доброе отражение. Черный обряд совершен, Зло внутри, какое будет продолжение?
Подростки принципиально не слушают взрослых, их манит мир тайн, паранормального, сверхсущественного. Но если даже взрослые не могут сражаться с истинным злом, что могут поделать дети? Дети, которые услышали легенду и решили поиграть. Взяли зеркало, нарисовали дверцу и ступеньки, чтоб было удобнее спускаться, и призвали нечто. Им не было известно, что заклинания имеют силу и работают!
В зеркале теперь живет кто-то, приводящий в ужас. Этому существу нужно заплатить за его приход. А плата – жизнь. Напуганные дети, которым теперь, словно в аду, слышаться голоса, шаги, присутствие Зла, сознаются родителям. Жаль, но взрослые верят лишь после первой утраченной жизни ребенка. Родители еще даже не понимают, какое могущественное существо явилось на зов заклинания и что будет с их судьбами и их детьми совсем скоро.
Доп. информация: Запись со спутника Eutelsat 36A/B, телеканал "Кинопремиум HD".
Сэмпл: http://multi-up.com/1088084
Тип релиза: HDTV 1080i
Контейнер: MKV
Видео: AVC, 1920x1080i, 25.000 fps, 5415 kbps
Аудио: Русский (Dolby AC3 5.1, 48 kHz, 448 kbps)

MediaInfo

Общее
Уникальный идентификатор : 226833786778267940998167341291153642188 (0xAAA69925F63A8BA096286CC305CFD2CC)
Полное имя : E:\Пиковая дама Чёрный обряд_2015_HDTV_1080i.mkv
Формат : Matroska
Версия формата : Version 2
Размер файла : 3,72 Гбайт
Продолжительность : 1 ч. 28 м.
Общий поток : 5981 Кбит/сек
Дата кодирования : UTC 2016-02-06 11:03:43
Программа кодирования : mkvmerge v5.6.0 ('Kenya Kane') built on May 27 2012 16:44:04
Библиотека кодирования : libebml v1.2.3 + libmatroska v1.3.0
Видео
Идентификатор : 1
Формат : AVC
Формат/Информация : Advanced Video Codec
Профиль формата : [email protected]
Параметр CABAC формата : Да
Параметр ReFrames формата : 3 кадра
Параметр GOP формата : M=4, N=32
Идентификатор кодека : V_MPEG4/ISO/AVC
Продолжительность : 1 ч. 28 м.
Битрейт : 5414 Кбит/сек
Ширина : 1920 пикселей
Высота : 1080 пикселей
Соотношение сторон : 16:9
Режим частоты кадров : Постоянный
Частота кадров : 25,000 кадров/сек
Стандарт вещания : Component
Цветовое пространство : YUV
Субдискретизация насыщенности : 4:2:0
Битовая глубина : 8 бит
Тип развёртки : Чересстрочная
Метод сохранения типа развёртки : Раздельные поля
Порядок развёртки : Верхнее поле первое
Бит/(Пиксели*Кадры) : 0.104
Размер потока : 3,36 Гбайт (91%)
Default : Да
Forced : Нет
Цветовой диапазон : Limited
Основные цвета : BT.709
Характеристики трансфера : BT.709
Коэффициенты матрицы : BT.709
Аудио
Идентификатор : 2
Формат : AC-3
Формат/Информация : Audio Coding 3
Расширение режима : CM (complete main)
Параметр Endianness формата : Big
Идентификатор кодека : A_AC3
Продолжительность : 1 ч. 28 м.
Вид битрейта : Постоянный
Битрейт : 448 Кбит/сек
Каналы : 6 каналов
Расположение каналов : Front: L C R, Side: L R, LFE
Частота : 48,0 КГц
Частота кадров : 31,250 кадров/сек (1536 spf)
Метод сжатия : С потерями
Задержка видео : 69 мс.
Размер потока : 285 Мбайт (7%)
Язык : Russian
Default : Да
Forced : Нет

Скриншоты

Other forum [Profile] [PM]
Display posts from previous:    
Reply to topic

The time now is: Today 23:16

All times are GMT + 3 Hours



You cannot post new topics in this forum
You cannot reply to topics in this forum
You cannot edit your posts in this forum
You cannot delete your posts in this forum
You cannot vote in polls in this forum
You cannot attach files in this forum
You cannot download files in this forum