Today is a free download without charge Download

Враги (2007) DVDRip [H.264]

Reply to topic
 
Author
Message

Region_13 ®

Gender:

Longevity: 7 years 8 months

Posts: 782

Location: Мальдивы

Торрент-статистика

Post 07-Feb-2016 14:44

[Quote]

Враги (2007) DVDRip [H.264] - Производство: Россия , Белоруссия / ТПО "РОК",Беларусьфильм
Жанр: Военный, Драма
Режиссер: Мария Можар
Актеры: Юлия Ауг, Аксель Шрик, Елена Яцко, Геннадий Карбук, Олеся Пуховая, Зинаида Зубкова, Иван Мацкевич
Описание:
Фильм "Враги" - это дебютная полнометражная работа молодого белорусского режиссера Марии Можар. Действие картины происходит во время Великой Отечественной Войны, жарким летом 1942 года в оккупированной белорусской деревне. В центре фильма история женщины, маленький сын которой был схвачен немцами за попытку подрыва поезда. Мать пытается спасти своего ребенка от расстрела. Трагедия героини становится катализатором в отношениях между жителями деревни – женщинами и стариками – и немецкими оккупантами. Люди, пытавшиеся забыть о войне и сосуществовать мирно, понимают, что это невозможно. Фильм "Враги" это совершенно новый взгляд на Великую Отечественную, заново раскрывающий драму простого человека, попавшего под жернова войны


Продолжительность: 01:18:02
Качество видео: DVDRip
Видео: AVC/H.264, [email protected], ~2000kbps
Аудио: AC3, 6 ch, 448kbps

Mediainfo:

Код:
Общее
Уникальный идентификатор                 : 142227209345703578868086334292884022607 (0x6AFFF6D1C8BEC9F08A364E173699654F)
Полное имя                               : H:\Враги (2007)[DVDRip-AVC].mkv
Формат                                   : Matroska
Версия формата                           : Version 4 / Version 2
Размер файла                             : 1,34 Гбайт
Продолжительность                        : 1 ч. 18 м.
Общий поток                              : 2450 Кбит/сек
Название фильма                          : Враги (2007)
Кодирование произвёл                     : andrejpushkaryov
Программа кодирования                    : Lavf57.23.101
Библиотека кодирования                   : Lavf57.23.101 / Lavf57.23.101
Примечание                               : Военная драма
Видео
Идентификатор                            : 1
Формат                                   : AVC
Формат/Информация                        : Advanced Video Codec
Профиль формата                          : [url=mailto:[email protected]][email protected][/url]
Параметр CABAC формата                   : Да
Параметр ReFrames формата                : 8 кадров
Идентификатор кодека                     : V_MPEG4/ISO/AVC
Продолжительность                        : 1 ч. 18 м.
Битрейт                                  : 2000 Кбит/сек
Ширина                                   : 720 пикселей
Высота                                   : 436 пикселей
Соотношение сторон                       : 2,35:1
Режим частоты кадров                     : Постоянный
Частота кадров                           : 25,000 кадров/сек
Цветовое пространство                    : YUV
Субдискретизация насыщенности            : 4:2:0
Битовая глубина                          : 8 бит
Тип развёртки                            : Прогрессивная
Бит/(Пиксели*Кадры)                      : 0.255
Размер потока                            : 1,06 Гбайт (80%)
Библиотека кодирования                   : x264 core 148 r2665 a01e339
Настройки программы                      : cabac=1 / ref=8 / deblock=1:0:0 / analyse=0x3:0x133 / me=umh / subme=9 / psy=1 / psy_rd=1.00:0.00 / mixed_ref=1 / me_range=24 / chroma_me=1 / trellis=2 / 8x8dct=1 / cqm=0 / deadzone=21,11 / fast_pskip=1 / chroma_qp_offset=-2 / threads=3 / lookahead_threads=1 / sliced_threads=0 / nr=0 / decimate=1 / interlaced=0 / bluray_compat=0 / constrained_intra=0 / bframes=3 / b_pyramid=2 / b_adapt=2 / b_bias=0 / direct=3 / weightb=1 / open_gop=0 / weightp=2 / keyint=250 / keyint_min=25 / scenecut=40 / intra_refresh=0 / rc_lookahead=60 / rc=2pass / mbtree=1 / bitrate=2000 / ratetol=1.0 / qcomp=0.60 / qpmin=0 / qpmax=69 / qpstep=4 / cplxblur=20.0 / qblur=0.5 / ip_ratio=1.40 / aq=1:1.00
Язык                                     : Russian
Default                                  : Да
Forced                                   : Нет
DURATION                                 : 01:18:02.000000000
Аудио
Идентификатор                            : 2
Формат                                   : AC-3
Формат/Информация                        : Audio Coding 3
Расширение режима                        : CM (complete main)
Параметр Endianness формата              : Big
Идентификатор кодека                     : A_AC3
Продолжительность                        : 1 ч. 18 м.
Вид битрейта                             : Постоянный
Битрейт                                  : 448 Кбит/сек
Каналы                                   : 6 каналов
Расположение каналов                     : Front: L C R, Side: L R, LFE
Частота                                  : 48,0 КГц
Частота кадров                           : 31,250 кадров/сек (1536 spf)
Метод сжатия                             : С потерями
Задержка видео                           : 2 с. 0 мс.
Размер потока                            : 250 Мбайт (18%)
Язык                                     : Russian
Default                                  : Да
Forced                                   : Нет
DURATION                                 : 01:17:59.984000000
Скриншоты:
       

_________________
Other forum [Profile] [PM]
Display posts from previous:    
Reply to topic

The time now is: Today 14:33

All times are GMT + 3 Hours



You cannot post new topics in this forum
You cannot reply to topics in this forum
You cannot edit your posts in this forum
You cannot delete your posts in this forum
You cannot vote in polls in this forum
You cannot attach files in this forum
You cannot download files in this forum