Today is a free download without charge Download

Вий (2013) BDRip [720p]

Reply to topic
 
Author
Message

Region_13 ®

Gender:

Longevity: 7 years 8 months

Posts: 782

Location: Мальдивы

Торрент-статистика

Post 07-Feb-2016 11:18

[Quote]

Вий (2013) BDRip
«Не бойся...»
- Год выпуска: 2013
Производство: Россия, Украина, Германия, Великобритания, Чехия
Жанр: Фэнтези, триллер, приключения
Описание фильма:
Начало XVIII века. Картограф Джонатан Грин совершает научное путешествие из Европы на Восток. Проследовав через Трансильванию и преодолев Карпатские горы, он попадает в затерянную среди непроходимых лесов деревушку. Только воля случая и густой туман могли занести его в это проклятое место. Народ, живущий здесь, не похож ни на один доселе виданный путешественником. Эти люди, оградив себя от остального мира глубоким рвом, наивно верят, что смогут уберечься от нечисти, не понимая, что она уже давно поселилась в их душах и только ждёт случая, чтобы вырваться наружу. Даже в страшном сне учёный-материалист не предполагал, что здесь ему уготована встреча с верным слугой дьявола.
Режиссер: Олег Степченко
Продюсер: Александр Куликов, Руслан Устинов, Алексей Петрухин
Актеры: Джейсон Флеминг, Андрей Смоляков, Алексей Чадов, Агния Дитковските, Юрий Цурило, Ольга Зайцева, Александр Яковлев, Игорь Жижикин, Валерий Золотухин, Нина Русланова
Перевод: Не требуется (Русский язык)
Субтитры: Отсутствуют


Дата мировой премьеры: 30 января 2014
Дата российской премьеры: 30 января 2014, «UPI»
Дата выхода DVD релиза: 3 марта 2014, «Новый Диск»
Дата выхода Blu-Ray релиза: 10 марта 2014, «Новый Диск»
Возраст: 12+
Продолжительность: 02:10:12
Качество видео: BDRip [HDClub]
Видео: MPEG4_AVC/H.264, 1266x720, ~6257 kbps, 0.286 bit/pixel
Аудио 1: DTS 5.1, 1536 kbps, 48 kHz [Русский]
Аудио 2: AC3 5.1, 640 kbps, 48 kHz [Русский]

Отчёт MediaInfo / x264 log

x264 log

x264 [info]: frame I:2187 Avg QP:16.83 size:137035
x264 [info]: frame P:40041 Avg QP:17.99 size: 59144
x264 [info]: frame B:145082 Avg QP:19.34 size: 24860
Полное имя : D:\Вий.(2013).BDRip.[720p].mkv
Формат : Matroska
Версия формата : Version 2
Размер файла : 7,80 Гбайт
Продолжительность : 2 ч. 10 м.
Общий поток : 8577 Кбит/сек
Название фильма : Вий (2013)
Дата кодирования : UTC 2014-03-15 10:51:19
Программа кодирования : mkvmerge v5.7.0 ('The Whirlwind') built on Aug 7 2012 14:11:40
Библиотека кодирования : libebml v1.2.3 + libmatroska v1.3.0
Attachment : Yes
Видео
Идентификатор : 1
Формат : AVC
Формат/Информация : Advanced Video Codec
Профиль формата : [url=mailto:[email protected]][email protected][/url]
Параметр CABAC формата : Да
Параметр ReFrames формата : 9 кадров
Идентификатор кодека : V_MPEG4/ISO/AVC
Продолжительность : 2 ч. 10 м.
Битрейт : 6257 Кбит/сек
Ширина : 1266 пикселей
Высота : 720 пикселей
Соотношение сторон : 16:9
Режим частоты кадров : Постоянный
Частота кадров : 23,976 кадра/сек
Цветовое пространство : YUV
Субдискретизация насыщенности : 4:2:0
Битовая глубина : 8 бит
Тип развёртки : Прогрессивная
Бит/(Пиксели*Кадры) : 0.286
Размер потока : 5,69 Гбайт (73%)
Заголовок : Вий.(2013).BDRip.[720p]
Библиотека кодирования : x264 core 142 r2389+41 02cb608 tMod [[email protected] X86_64]
Настройки программы : cabac=1 / ref=9 / deblock=1:-3:-3 / analyse=0x3:0x133 / me=umh / subme=11 / psy=1 / fade_compensate=0.00 / psy_rd=1.00:0.00 / mixed_ref=1 / me_range=48 / chroma_me=1 / trellis=2 / 8x8dct=1 / cqm=0 / deadzone=21,11 / fast_pskip=0 / chroma_qp_offset=-2 / threads=12 / lookahead_threads=2 / sliced_threads=0 / nr=0 / decimate=1 / interlaced=0 / bluray_compat=0 / constrained_intra=0 / fgo=0 / bframes=7 / b_pyramid=2 / b_adapt=2 / b_bias=0 / direct=1 / weightb=1 / open_gop=0 / weightp=2 / keyint=240 / keyint_min=23 / scenecut=40 / intra_refresh=0 / rc_lookahead=60 / rc=crf / mbtree=0 / crf=17.7000 / qcomp=0.70 / qpmin=0:0:0 / qpmax=69:69:69 / qpstep=4 / vbv_maxrate=50000 / vbv_bufsize=62500 / crf_max=0.0 / nal_hrd=none / filler=0 / ip_ratio=1.25 / pb_ratio=1.15 / aq=4:0.80 / aq-sensitivity=10.00 / aq-factor=1.00:1.00:1.00 / aq2=0 / aq3=0
Язык : Russian
Default : Да
Forced : Нет
Основные цвета : BT.709
Характеристики трансфера : BT.709
Коэффициенты матрицы : BT.709
Аудио #1
Идентификатор : 2
Формат : DTS
Формат/Информация : Digital Theater Systems
Идентификатор кодека : A_DTS
Продолжительность : 2 ч. 10 м.
Вид битрейта : Постоянный
Битрейт : 1510 Кбит/сек
Каналы : 6 каналов
Расположение каналов : Front: L C R, Side: L R, LFE
Частота : 48,0 КГц
Битовая глубина : 16 бит
Метод сжатия : С потерями
Размер потока : 1,37 Гбайт (18%)
Заголовок : DTS 5.1 / 1509 kbps / Original
Язык : Russian
Default : Да
Forced : Нет
Аудио #2
Идентификатор : 3
Формат : AC-3
Формат/Информация : Audio Coding 3
Расширение режима : CM (complete main)
Параметр Endianness формата : Big
Идентификатор кодека : A_AC3
Продолжительность : 2 ч. 10 м.
Вид битрейта : Постоянный
Битрейт : 640 Кбит/сек
Каналы : 6 каналов
Расположение каналов : Front: L C R, Side: L R, LFE
Частота : 48,0 КГц
Битовая глубина : 16 бит
Метод сжатия : С потерями
Размер потока : 596 Мбайт (7%)
Заголовок : AC3 5.1 / 640 kbps / Original
Язык : Russian
Default : Нет
Forced : Нет
Меню
00:00:00.000 : ru:Chapter 1
00:16:15.474 : ru:Chapter 2
00:32:07.634 : ru:Chapter 3
00:44:54.650 : ru:Chapter 4
01:07:12.194 : ru:Chapter 5
01:20:37.791 : ru:Chapter 6
01:37:30.803 : ru:Chapter 7
01:52:43.131 : ru:Chapter 8
Скриншоты:
       
       

_________________
Other forum [Profile] [PM]
Display posts from previous:    
Reply to topic

The time now is: Today 14:50

All times are GMT + 3 Hours



You cannot post new topics in this forum
You cannot reply to topics in this forum
You cannot edit your posts in this forum
You cannot delete your posts in this forum
You cannot vote in polls in this forum
You cannot attach files in this forum
You cannot download files in this forum