Today is a free download without charge Download

Битва за Севастополь (2015) BDRip [H.264/720p]

Reply to topic
 
Author
Message

Region_13 ®

Gender:

Longevity: 7 years 8 months

Posts: 782

Location: Мальдивы

Торрент-статистика

Post 07-Feb-2016 11:14

[Quote]

Битва за Севастополь (2015) BDRip [H.264/720p]- Производство: "Новые люди", "Кинодел" / Россия, Украина
Жанр: Военный, Боевик, Мелодрама, Драма
Режиссер: Сергей Мокрицкий
Актеры: Юлия Пересильд, Евгений Цыганов, Олег Васильков, Никита Тарасов, Джоан Блэкэм, Полина Пахомова, Владимир Лилицкий, Анатолий Кот, Нателла Абелева-Таганова, Валерий Гришко
Описание:
Любовь под нескончаемым огнем противника, дружба с Элеонорой Рузвельт, выступление на конференции, повлиявшее на исход Второй мировой войны, желание жить и страх потерять любимого человека — справится ли со всем этим хрупкая женщина?
Это реальная история Людмилы Павличенко — легендарной женщины-снайпера. Солдаты шли в бой с ее именем на устах, а враги устроили на нее охоту. На поле битвы она видела смерть и страдания, но самым серьезным испытанием для нее стала любовь, которую у нее могла забрать война…


Дата мировой премьеры: 2 апреля 2015
Дата премьеры в РФ: 2 апреля 2015, «Двадцатый Век Фокс СНГ»
Дата выхода DVD/Blu-ray релиза: 12 мая 2015, «Lizard Cinema Trade»
Возраст: 12+ зрителям, достигшим 12 лет
Релиз от:
Продолжительность: 02:02:49
Качество: BDRip 720p
Перевод: Не требуется
Формат: MKV
Видео: 1280x534 at 24.00 fps, [email protected]][email protected] ~ 5000 kbps avg
Аудио: Русский: 48 kHz, AC3, 6 ch, 640.00 kbps

MediaInfo:

Код:
Общее
Уникальный идентификатор                 : 170440491697765871824770752848144676346 (0x8039A509127D33A3ADA484237C88B5FA)
Полное имя                               : D:\Bitva.za.Sevastopol.2015.720p.BDRip.mkv
Формат                                   : Matroska
Версия формата                           : Version 2
Размер файла                             : 4,84 Гбайт
Продолжительность                        : 2 ч. 2 м.
Общий поток                              : 5642 Кбит/сек
Название фильма                          : Битва за Севастополь / Незламна (2015)
Дата кодирования                         : UTC 2015-05-19 04:58:49
Программа кодирования                    : mkvmerge v5.8.0 ('No Sleep / Pillow') built on Sep  2 2012 15:37:04
Библиотека кодирования                   : libebml v1.2.3 + libmatroska v1.3.0
Видео
Идентификатор                            : 1
Формат                                   : AVC
Формат/Информация                        : Advanced Video Codec
Профиль формата                          : [url=mailto:[email protected]][email protected][/url]
Параметр CABAC формата                   : Да
Параметр ReFrames формата                : 10 кадров
Идентификатор кодека                     : V_MPEG4/ISO/AVC
Продолжительность                        : 2 ч. 2 м.
Битрейт                                  : 5000 Кбит/сек
Ширина                                   : 1280 пикселей
Высота                                   : 534 пикселя
Соотношение сторон                       : 2,40:1
Режим частоты кадров                     : Постоянный
Частота кадров                           : 24,000 кадра/сек
Цветовое пространство                    : YUV
Субдискретизация насыщенности            : 4:2:0
Битовая глубина                          : 8 бит
Тип развёртки                            : Прогрессивная
Бит/(Пиксели*Кадры)                      : 0.305
Размер потока                            : 4,19 Гбайт (87%)
Заголовок                                : Битва за Севастополь / Незламна (2015)
Библиотека кодирования                   : x264 core 146 r2538 121396c
Настройки программы                      : cabac=1 / ref=10 / deblock=1:-3:-3 / analyse=0x3:0x113 / me=umh / subme=11 / psy=1 / psy_rd=1.00:0.05 / mixed_ref=1 / me_range=24 / chroma_me=1 / trellis=2 / 8x8dct=1 / cqm=0 / deadzone=21,11 / fast_pskip=0 / chroma_qp_offset=-3 / threads=12 / lookahead_threads=1 / sliced_threads=0 / nr=0 / decimate=0 / interlaced=0 / bluray_compat=0 / constrained_intra=0 / bframes=10 / b_pyramid=2 / b_adapt=1 / b_bias=0 / direct=3 / weightb=1 / open_gop=0 / weightp=2 / keyint=240 / keyint_min=24 / scenecut=40 / intra_refresh=0 / rc_lookahead=60 / rc=2pass / mbtree=0 / bitrate=5000 / ratetol=1.0 / qcomp=0.60 / qpmin=0 / qpmax=69 / qpstep=4 / cplxblur=20.0 / qblur=0.5 / vbv_maxrate=50000 / vbv_bufsize=62500 / nal_hrd=none / filler=0 / ip_ratio=1.40 / pb_ratio=1.30 / aq=1:0.70
Язык                                     : Russian
Default                                  : Нет
Forced                                   : Нет
Аудио
Идентификатор                            : 2
Формат                                   : AC-3
Формат/Информация                        : Audio Coding 3
Расширение режима                        : CM (complete main)
Параметр Endianness формата              : Big
Идентификатор кодека                     : A_AC3
Продолжительность                        : 2 ч. 2 м.
Вид битрейта                             : Постоянный
Битрейт                                  : 640 Кбит/сек
Каналы                                   : 6 каналов
Расположение каналов                     : Front: L C R, Side: L R, LFE
Частота                                  : 48,0 КГц
Метод сжатия                             : С потерями
Размер потока                            : 562 Мбайт (11%)
Заголовок                                : AC3, 5.1, 640 kbps avg
Язык                                     : Russian
Default                                  : Да
Forced                                   : Нет
Меню
00:00:00.000                             : en:Chapter 01
00:10:08.250                             : en:Chapter 02
00:22:45.125                             : en:Chapter 03
00:31:29.416                             : en:Chapter 04
00:44:21.708                             : en:Chapter 05
00:51:33.833                             : en:Chapter 06
01:00:40.458                             : en:Chapter 07
01:10:27.916                             : en:Chapter 08
01:21:30.458                             : en:Chapter 09
01:31:47.458                             : en:Chapter 10
01:43:17.583                             : en:Chapter 11
01:56:30.125                             : en:Chapter 12

Соотношение сторон экрана:

Скриншоты:        

_________________
Other forum [Profile] [PM]
Display posts from previous:    
Reply to topic

The time now is: Today 12:07

All times are GMT + 3 Hours



You cannot post new topics in this forum
You cannot reply to topics in this forum
You cannot edit your posts in this forum
You cannot delete your posts in this forum
You cannot vote in polls in this forum
You cannot attach files in this forum
You cannot download files in this forum