Today is a free download without charge Download

Звездочки на земле / Taare Zameen Par (Аамир Кхан / Aamir Khan, Амол Гуптэ / Amole Gupte) [2007 г., драма, BDRip 720p] MVO (Disney Russia)

Reply to topic
 
Author
Message

Delia ®

Gender:

Longevity: 11 years

Posts: 1821

Торрент-статистика

Post 18-Jul-2012 21:09

[Quote]

Звездочки на земле / Taare Zameen Par«Ein Stern auf Erden»--
Год выпуска: 2007
Страна: Индия
Жанр: драма, ...
Продолжительность: 02:42:32
Перевод: Профессиональный (многоголосый закадровый)
Режиссер: Аамир Кхан, Амол Гуптэ
Сценарий: Амол Гуптэ
Продюсер: Аамир Кхан, Ajay Bijli, Sanjeev K. Bijli, ...- В ролях: Даршил Сафари (Darsheel Safary), Аамир Кхан (Aamir Khan), Танай Чхеда (Tanay Chheda), Sachet Engineer, Тиска Чопра (Tisca Chopra), Випин Шарма (Vipin Sharma), Ayaan, Мегха Бенгали (Megha Bengali), Bugs Bhargava, Alorika Chatterjee, Gurkirtan Chauhan, Sanjay Dadich, Мадхав Датт (Madhav Datt), Aniket Engineer, Krishn Gopinath, Munireh Guhilot, Ramit Gupta, Радж (Raaj Gopal Iyer), Jadav, Gurdeepak Kaur
Описание: Маленький мальчик 8 лет Ишан Авасти с рождения немного отличается от других детей. Ему дается с трудом то, что у других получается очень легко. Мир не понимает этого ребенка, как и его собственные родители. Когда Ишан в третий раз проваливает экзамены в школе, его отец в наказание отправляет мальчика в школу-интернат. Одиночество губит ребенка, он осуждает себя за расставание с родителями, но и их не может простить. Однажды в жизни Ишана появляется временный учитель рисования Рам Никум — единственный, кто понимает этого ребенка. Рам ставит перед собой цель изменить жизнь мальчика и отношение к нему.-Рейтинг MPAA: -- --Качество: BDRip
Формат: MKV
Видео кодек: H.264 (AVC)
Аудио кодеk: AC3
Видео: 1280x544 (2.35:1), 23.976 fps, AVC, 3 401 Kbps
Аудио: AC3, 448 Kbps, 48.0 KHz, 6 ch

МедиаИнфо

Код:
General
Complete name                    : Taare Zameen Par (2007)BDRip 720p-F.HD.mkv
Format                           : Matroska
File size                        : 4.37 GiB
Duration                         : 2h 42mn
Overall bit rate                 : 3 850 Kbps
Encoded date                     : UTC 2012-07-18 17:15:56
Writing application              : mkvmerge v5.6.0 ('Kenya Kane') built on May 27 2012 16:44:04
Writing library                  : libebml v1.2.3 + libmatroska v1.3.0
Video
ID                               : 1
Format                           : AVC
Format/Info                      : Advanced Video Codec
Format profile                   : [email protected]
Format settings, CABAC           : Yes
Format settings, ReFrames        : 9 frames
Muxing mode                      : Container [email protected]
Codec ID                         : V_MPEG4/ISO/AVC
Duration                         : 2h 42mn
Bit rate                         : 3 401 Kbps
Width                            : 1 280 pixels
Height                           : 544 pixels
Display aspect ratio             : 2.35:1
Frame rate                       : 23.976 fps
Color space                      : YUV
Chroma subsampling               : 4:2:0
Bit depth                        : 8 bits
Scan type                        : Progressive
Bits/(Pixel*Frame)               : 0.204
Stream size                      : 3.78 GiB (86%)
Writing library                  : x264 core 125 r2200 999b753
Encoding settings                : cabac=1 / ref=9 / deblock=1:-1:-1 / analyse=0x3:0x113 / me=umh / subme=10 / psy=1 / psy_rd=1.00:0.00 / mixed_ref=1 / me_range=32 / chroma_me=1 / trellis=2 / 8x8dct=1 / cqm=0 / deadzone=21,11 / fast_pskip=0 / chroma_qp_offset=-2 / threads=6 / lookahead_threads=1 / sliced_threads=0 / nr=0 / decimate=1 / interlaced=0 / bluray_compat=0 / constrained_intra=0 / bframes=7 / b_pyramid=2 / b_adapt=2 / b_bias=0 / direct=3 / weightb=1 / open_gop=0 / weightp=2 / keyint=240 / keyint_min=23 / scenecut=40 / intra_refresh=0 / rc=2pass / mbtree=0 / bitrate=3401 / ratetol=1.0 / qcomp=0.70 / qpmin=10 / qpmax=51 / qpstep=4 / cplxblur=20.0 / qblur=0.5 / ip_ratio=1.40 / pb_ratio=1.30 / aq=1:1.00
Color primaries                  : BT.709-5, BT.1361, IEC 61966-2-4, SMPTE RP177
Transfer characteristics         : BT.709-5, BT.1361
Matrix coefficients              : BT.709-5, BT.1361, IEC 61966-2-4 709, SMPTE RP177
Audio
ID                               : 2
Format                           : AC-3
Format/Info                      : Audio Coding 3
Mode extension                   : CM (complete main)
Codec ID                         : A_AC3
Duration                         : 2h 42mn
Bit rate mode                    : Constant
Bit rate                         : 448 Kbps
Channel(s)                       : 6 channels
Channel positions                : Front: L C R, Side: L R, LFE
Sampling rate                    : 48.0 KHz
Bit depth                        : 16 bits
Stream size                      : 521 MiB (12%)
Language                         : Russian
Menu
00:00:00.000                     : en:Chapter 01
00:08:25.505                     : en:Chapter 02
00:17:52.071                     : en:Chapter 03
00:21:15.482                     : en:Chapter 04
00:27:19.054                     : en:Chapter 05
00:33:32.635                     : en:Chapter 06
00:37:13.564                     : en:Chapter 07
00:40:24.880                     : en:Chapter 08
00:46:47.387                     : en:Chapter 09
00:51:18.825                     : en:Chapter 10
00:57:10.426                     : en:Chapter 11
01:03:05.072                     : en:Chapter 12
01:06:05.795                     : en:Chapter 13
01:11:13.352                     : en:Chapter 14
01:17:27.142                     : en:Chapter 15
01:25:32.168                     : en:Chapter 16
01:30:46.441                     : en:Chapter 17
01:38:59.808                     : en:Chapter 18
01:47:29.151                     : en:Chapter 19
01:49:12.504                     : en:Chapter 20
01:56:24.352                     : en:Chapter 21
02:03:04.710                     : en:Chapter 22
02:06:57.318                     : en:Chapter 23
02:11:37.890                     : en:Chapter 24
02:19:06.338                     : en:Chapter 25
02:26:09.385                     : en:Chapter 26
02:31:22.073                     : en:Chapter 27
02:35:36.994                     : en:Chapter 28


Скриншоты

     
     

_________________
Человек – это канат, натянутый между животным и сверхчеловеком, – канат над пропастью.
В человеке ценно то, что он мост, а не цель. Фридрих Ницше
Other forum [Profile] [PM]
Similar theme
Forum Topic Author Torrent Replies Last Post
./templates/default/images/folder_dl.gif Зарубежное кино Изгой-один: Звёздные войны. Истории / Rogue One: A Star Wars Story (Гарет Эдвардс) [2016 г., фантастика, боевик, приключения, BDRip 1080p] DUB | Чистый звук Theseus
1 | 0

0 | 8084

8

2017-03-22 11:05
Theseus Latest
Display posts from previous:    
Reply to topic

The time now is: Today 23:55

All times are GMT + 3 Hours



You cannot post new topics in this forum
You cannot reply to topics in this forum
You cannot edit your posts in this forum
You cannot delete your posts in this forum
You cannot vote in polls in this forum
You cannot attach files in this forum
You cannot download files in this forum