Today is a free download without charge Download

Карибский кризис 4: Телепорт в никуда / Pirates of the Caribbean: On Stranger Tides (Роб Маршалл) (2012) (Приключения, Комедия) DVDRip

Reply to topic
 
Author
Message

Meshanik ®

Gender:

Longevity: 9 years

Posts: 3866

Location: Los Angeles

Торрент-статистика

Post 17-Jul-2012 13:51

[Quote]

Карибский кризис 4: Телепорт в никуда / Pirates of the Caribbean: On Stranger Tides (2012) DVDRip-
Русское название: Карибский кризис 4: Телепорт в никуда
Оригинальное название: Pirates of the Caribbean: On Stranger Tides
Год выпуска: 2012
Жанр: Приключения, Комедия
Описание фильма:
Моря и океаны 17-го века бороздит инопланетный вундерлинкор и с лёгкостью топит всех встречных и поперечных. Командует линкором кубинский темпоральный разведчик Хуан Карлос, которому пришельцы-гуманоиды подарили линкор ради каких-то своих инопланетных целей. Хуан Карлос мечтает доставить вундерлинкор в 20-й век, чтоб с его помощью устроить всемирную революцию и сделать Кубу сверхдержавой. Американцы, чтоб не допустить прорыва линкора в будущее, принимаются уничтожать все телепорты 17-го века. В итоге остаётся последний телепорт, который всё ещё функционирует, и один из немногих, знающих дорогу к нему – это уволенный из темпорального агенства, но не растерявший бодрости и нежной любви к алкоголю, теперь уже бывший темпоральный разведчик Евгений Воробьёв.
Режиссер: Роб Маршалл
Актеры: Джонни Депп, Пенелопа Крус, Джеффри Раш, Иэн МакШейн, Кевин МакНэлли, Стивен Грэм, Сэм Клафлин, Астрид Берже-Фрисб,и Джемма Уорд, Кит Ричардс
Продолжительность: 02:12:31
Перевод: Многоголосый закадровый
Автор перевода: студия deBohpodast’
Релиз группа:

Дата мировой премьеры: 7 мая 2011
Дата российской премьеры: 18 мая 2011
Дата выхода DVD релиза: 6 сентября 2011
Видеокодек: Xvid
Битрейт видео: ~1851 kb/s
Размер кадра: 720x304
Качество видео: DVDRip
Аудиокодек: MP3, 2ch
Битрейт аудио: 320 kb/s VBR Сэмпл

MediaInfo

Формат : AVI
Формат/Информация : Audio Video Interleave
Профиль формата : OpenDML
Размер файла : 2,02 Гбайт
Продолжительность : 2 ч. 12 м.
Общий поток : 2184 Кбит/сек
Программа кодирования : VirtualDubMod 1.5.10.2 (build 2540/release)
Библиотека кодирования : VirtualDubMod build 2540/release
Видео
Идентификатор : 0
Формат : MPEG-4 Visual
Профиль формата : [email protected]
Параметр BVOP формата : Нет
Параметр QPel формата : Нет
Параметр GMC формата : Без точки перехода
Параметр матрицы формата : Default (H.263)
Идентификатор кодека : XVID
Идентификатор кодека/Подсказка : XviD
Продолжительность : 2 ч. 12 м.
Битрейт : 1851 Кбит/сек
Ширина : 720 пикселей
Высота : 304 пикселя
Соотношение сторон : 2,35:1
Частота кадров : 23,976 кадра/сек
Цветовое пространство : YUV
Субдискретизация насыщенности : 4:2:0
Битовая глубина : 8 бит
Тип развёртки : Прогрессивная
Метод сжатия : С потерями
Бит/(Пиксели*Кадры) : 0.353
Размер потока : 1,71 Гбайт (85%)
Библиотека кодирования : XviD 1.2.1 (UTC 2008-12-04)
Аудио
Идентификатор : 1
Формат : MPEG Audio
Версия формата : Version 1
Профиль формата : Layer 3
Режим : Joint stereo
Идентификатор кодека : 55
Идентификатор кодека/Подсказка : MP3
Продолжительность : 2 ч. 12 м.
Вид битрейта : Постоянный
Битрейт : 320 Кбит/сек
Каналы : 2 канала
Частота : 44,1 КГц
Метод сжатия : С потерями
Размер потока : 303 Мбайт (15%)
Выравнивание : Разделение по промежуткам
Продолжительность промежутка : 42 мс. (1,00 видеокадр)
Время предзагрузки промежутка : 500 мс.

Скриншоты:

           
Other forum [Profile] [PM]
Display posts from previous:    
Reply to topic

The time now is: Today 00:46

All times are GMT + 3 Hours



You cannot post new topics in this forum
You cannot reply to topics in this forum
You cannot edit your posts in this forum
You cannot delete your posts in this forum
You cannot vote in polls in this forum
You cannot attach files in this forum
You cannot download files in this forum