Today is a free download without charge Download

Ноги-руки за любовь / Burke and Hare (Джон Лэндис) [2010, триллер, комедия, HDRip-AVC] DVO

Reply to topic
 
Author
Message

Delia ®

Gender:

Longevity: 10 years

Posts: 1821

Торрент-статистика

Post 25-Feb-2011 22:03

[Quote]

Ноги-руки за любовь / Burke and Hare Перевод: Профессиональный (двухголосый), cубтитры: русские, английские
Страна: Великобритания
Режиссер: Джон Лэндис
Жанр: триллер, комедия
Продолжительность: 01:31:27
Год выпуска: 2010
В ролях: Саймон Пегг, Энди Серкис, Айла Фишер, Том Уилкинсон, Тим Карри, Кристофер Ли, Хью Бонневилль, Стефен Мерчант, Дженни Агаттер, Поллианна Макинтош
Описание: Черная комедия, действие которой происходит в 19 веке, поведает нам историю двух грабителей могил, которые находят для себя прибыль в похищении трупов и доставки их в Эдинбургскую военно-медицинскую школу


Формат: HDRip-AVC, MKV, H.264, AC3
Видео: 1000 x 420 (2.381) 24.000 fps, AVC, H.264, [email protected] ~1 865 kbps avg, 0.185 bit/pixel
Аудио: 48 kHz, AC-3,L C R, L R, LFE , 6 ch, ~384 kbps avg

Отчет MediaInfo

General
Unique ID : 196038976547411972606167831223689169585 (0x937BBBC7F6F4DCA585EDE6A08F6E4AB1)
Complete name : E:\РЕЛИЗЫ\Все релизы 10\nogi_ruki_za_lyubov_[tfile.ru].mkv
Format : Matroska
File size : 1.46 GiB
Duration : 1h 31mn
Overall bit rate : 2 295 Kbps
Movie name : Ноги-руки за любовь / Burke and Hare (2010) HDRip-AVC от FireBit
Encoded date : UTC 2011-02-24 17:04:39
Writing application : mkvmerge v2.3.0 ('Freak U') built on Sep 8 2008 18:32:16
Writing library : libebml v0.7.7 + libmatroska v0.8.1
Video
ID : 1
Format : AVC
Format/Info : Advanced Video Codec
Format profile : [email protected]
Format settings, CABAC : Yes
Format settings, ReFrames : 4 frames
Codec ID : V_MPEG4/ISO/AVC
Duration : 1h 31mn
Bit rate : 1 865 Kbps
Width : 1 000 pixels
Height : 420 pixels
Display aspect ratio : 2.35:1
Frame rate : 24.000 fps
Color space : YUV
Chroma subsampling : 4:2:0
Bit depth : 8 bits
Scan type : Progressive
Bits/(Pixel*Frame) : 0.185
Stream size : 1.19 GiB (81%)
Language : English
Audio
ID : 2
Format : AC-3
Format/Info : Audio Coding 3
Mode extension : CM (complete main)
Codec ID : A_AC3
Duration : 1h 31mn
Bit rate mode : Constant
Bit rate : 384 Kbps
Channel(s) : 6 channels
Channel positions : Front: L C R, Side: L R, LFE
Sampling rate : 48.0 KHz
Bit depth : 16 bits
Compression mode : Lossy
Delay relative to video : 15ms
Stream size : 251 MiB (17%)
Title : http://firebit.org
Language : Russian
Text #1
ID : 3
Format : UTF-8
Codec ID : S_TEXT/UTF8
Codec ID/Info : UTF-8 Plain Text
Title : http://firebit.org
Language : English
Text #2
ID : 4
Format : UTF-8
Codec ID : S_TEXT/UTF8
Codec ID/Info : UTF-8 Plain Text
Title : http://firebit.org
Language : Russian
Text #3
ID : 5
Format : UTF-8
Codec ID : S_TEXT/UTF8
Codec ID/Info : UTF-8 Plain Text
Title : http://firebit.org
Language : English

Показать скриншоты

        

_________________
Человек – это канат, натянутый между животным и сверхчеловеком, – канат над пропастью.
В человеке ценно то, что он мост, а не цель. Фридрих Ницше
Other forum [Profile] [PM]
Display posts from previous:    
Reply to topic

The time now is: Today 09:06

All times are GMT + 3 Hours



You cannot post new topics in this forum
You cannot reply to topics in this forum
You cannot edit your posts in this forum
You cannot delete your posts in this forum
You cannot vote in polls in this forum
You cannot attach files in this forum
You cannot download files in this forum