Today is a free download without charge Download

Закон жизни (Ришат Гильметдинов) [2008, Россия, мультфильм, экранизация, WEBRip]

Reply to topic
 
Author
Message

Omen ®

Longevity: 7 years 11 months

Posts: 181087

Торрент-статистика

Post 31-Jan-2016 09:00

[Quote]

Закон жизни
Страна: Россия
Жанр: мультфильм, экранизация
Продолжительность: 00:08:56
Год выпуска: 2008
Режиссёр: Ришат Гильметдинов
Описание: По мотивам рассказа Джека Лондона.
Индейское племя уходит на новое место стоянки. Старый индеец, передавший обязанности вождя своему сыну, остаётся у костра один, чтобы встретить смерть. Он вспоминает о своей молодости...
Качество: WEBRip
Формат: AVI
Видео: 1187 kbps, 640х480 (4:3), 25.000 fps, MPEG-4 Visual (XviD)
Аудио: 128 kbps, 44.1 kHz, 2 channels, MPEG Audio (MP3)
Субтитры: отсутствуют

Подробные технические данные

GeneralComplete name : Закон жизни (2008).aviFormat : AVIFormat/Info : Audio Video InterleaveFile size : 84.7 MiBDuration : 8mn 56sOverall bit rate : 1 325 KbpsWriting library : VirtualDub build 35491/release
VideoID : 0Format : MPEG-4 VisualFormat profile : Advanced [email protected] settings, BVOP : 2Format settings, QPel : NoFormat settings, GMC : No warppointsFormat settings, Matrix : Default (H.263)Codec ID : XVIDCodec ID/Hint : XviDDuration : 8mn 56sBit rate : 1 187 KbpsWidth : 640 pixelsHeight : 480 pixelsDisplay aspect ratio : 4:3Frame rate : 25.000 fpsColor space : YUVChroma subsampling : 4:2:0Bit depth : 8 bitsScan type : ProgressiveCompression mode : LossyBits/(Pixel*Frame) : 0.155Stream size : 75.9 MiB (90%)Writing library : XviD 64
AudioID : 1Format : MPEG AudioFormat version : Version 1Format profile : Layer 3Mode : Joint stereoCodec ID : 55Codec ID/Hint : MP3Duration : 8mn 56sBit rate mode : ConstantBit rate : 128 KbpsChannel(s) : 2 channelsSampling rate : 44.1 KHzCompression mode : LossyStream size : 8.16 MiB (10%)Alignment : Split accross interleavesInterleave, duration : 40 ms (1.00 video frame)Interleave, preload duration : 501 ms

Скриншоты

Other forum [Profile] [PM]
Display posts from previous:    
Reply to topic

The time now is: Today 09:06

All times are GMT + 3 Hours



You cannot post new topics in this forum
You cannot reply to topics in this forum
You cannot edit your posts in this forum
You cannot delete your posts in this forum
You cannot vote in polls in this forum
You cannot attach files in this forum
You cannot download files in this forum