Today is a free download without charge Download

Напролом / Lockout (Джеймс Мэтер / James Mather, Стивен Ст. Леджер / Stephen St. Leger) [2012, Фантастика, боевик, триллер, ВDRip720] [UNRATED] Лицензия

Reply to topic
 
Author
Message

BoxeR ®

Gender:

Longevity: 9 years

Posts: 423

Торрент-статистика

Post 13-Jul-2012 12:41

[Quote]

Напролом / Lockout
«В одиночку против 500. В чем проблема?»
- Год выхода: 2012
Выпущено: Франция / Europa Corp., Canal+
Жанр: фантастика, боевик, триллер
Продолжительность: 01:35:19
Перевод: Профессиональный (полное дублирование) |Лицензия|
Cубтитры: нет-Режиссер:
Джеймс Мэтер / James Mather, Стивен Ст. Леджер / Stephen St. Leger-В ролях:
Гай Пирс, Мэгги Грэйс, Винсент Риган, Джозеф Гилган, Катрин Чан, Роберт Джон Бёрк, Джеймс Хонг, Энсон Маунт, Крис Сарандон, Сандор Текси, Джозеф Сикора, Игорь Жижикин, Регги Ли-О фильме:
Отправиться в Космос, проникнуть в самую неприступную тюрьму во Вселенной, прорваться сквозь толпу взбунтовавшихся уголовников и вырвать из их лап дочь президента, пока орбитальная станция не рухнула на Землю. Это может только спецагент Сноу. Потому что он лучший. Потому что он… неуправляем.-Семпл: http://multi-up.com/732119/
Качество: BDRip 720
Формат: MKV
Видео кодек: H.264
Аудио кодек: DTS
Видео: 1280x536 (2.35:1), 23.976 fps, 4 600 Kbps (0.280 bit/pixel)
Аудио: DTS, 48.0 KHz, 6 ch, 755 Kbps, CBR (Russian)
Аудио 2: DTS, 48.0 KHz, 6 ch, 1 510 Kbps, CBR (English)
--

MediaInfo

Format : Matroska
Format version : Version 2
File size : 4.57 GiB
Duration : 1h 35mn
Overall bit rate : 6 866 Kbps
Encoded date : UTC 2012-07-12 21:20:12
Writing application : mkvmerge v5.5.0 ('Healer') built on Apr 6 2012 21:43:24
Writing library : libebml v1.2.3 + libmatroska v1.3.0
Video
ID : 1
Format : AVC
Format/Info : Advanced Video Codec
Format profile : [email protected]
Format settings, CABAC : Yes
Format settings, ReFrames : 12 frames
Codec ID : V_MPEG4/ISO/AVC
Duration : 1h 35mn
Bit rate : 4 600 Kbps
Width : 1 280 pixels
Height : 536 pixels
Display aspect ratio : 2.40:1
Frame rate : 23.976 fps
Color space : YUV
Chroma subsampling : 4:2:0
Bit depth : 8 bits
Scan type : Progressive
Bits/(Pixel*Frame) : 0.280
Stream size : 2.97 GiB (65%)
Writing library : x264 core 125 r2200 999b753
Encoding settings : cabac=1 / ref=12 / deblock=1:-3:-3 / analyse=0x3:0x113 / me=umh / subme=10 / psy=1 / psy_rd=1.10:0.00 / mixed_ref=1 / me_range=32 / chroma_me=1 / trellis=2 / 8x8dct=1 / cqm=0 / deadzone=21,11 / fast_pskip=0 / chroma_qp_offset=-2 / threads=18 / lookahead_threads=3 / sliced_threads=0 / nr=0 / decimate=0 / interlaced=0 / bluray_compat=0 / constrained_intra=0 / bframes=8 / b_pyramid=2 / b_adapt=2 / b_bias=0 / direct=3 / weightb=1 / open_gop=0 / weightp=2 / keyint=240 / keyint_min=24 / scenecut=40 / intra_refresh=0 / rc_lookahead=120 / rc=2pass / mbtree=1 / bitrate=4600 / ratetol=1.0 / qcomp=0.70 / qpmin=0 / qpmax=69 / qpstep=4 / cplxblur=20.0 / qblur=0.5 / ip_ratio=1.40 / aq=1:1.10
Language : English
Default : Yes
Forced : No
Audio #1
ID : 2
Format : DTS
Format/Info : Digital Theater Systems
Codec ID : A_DTS
Duration : 1h 35mn
Bit rate mode : Constant
Bit rate : 755 Kbps
Channel(s) : 6 channels
Channel positions : Front: L C R, Side: L R, LFE
Sampling rate : 48.0 KHz
Bit depth : 24 bits
Compression mode : Lossy
Stream size : 514 MiB (11%)
Language : Russian
Default : Yes
Forced : No
Audio #2
ID : 3
Format : DTS
Format/Info : Digital Theater Systems
Codec ID : A_DTS
Duration : 1h 35mn
Bit rate mode : Constant
Bit rate : 1 510 Kbps
Channel(s) : 6 channels
Channel positions : Front: L C R, Side: L R, LFE
Sampling rate : 48.0 KHz
Bit depth : 24 bits
Compression mode : Lossy
Stream size : 1.01 GiB (22%)
Language : English
Default : No
Forced : No
Text #1
ID : 4
Format : UTF-8
Codec ID : S_TEXT/UTF8
Codec ID/Info : UTF-8 Plain Text
Language : Russian
Default : No
Forced : No
Text #2
ID : 5
Format : UTF-8
Codec ID : S_TEXT/UTF8
Codec ID/Info : UTF-8 Plain Text
Language : English
Default : Yes
Forced : No
Menu
00:00:00.000 : en:00:00:00.000
00:05:26.201 : en:00:05:26.201
00:10:16.991 : en:00:10:16.991
00:15:19.919 : en:00:15:19.919
00:22:28.973 : en:00:22:28.973
00:29:18.090 : en:00:29:18.090
00:35:32.839 : en:00:35:32.839
00:40:14.662 : en:00:40:14.662
00:45:55.920 : en:00:45:55.920
00:50:47.962 : en:00:50:47.962
00:55:28.575 : en:00:55:28.575
01:00:47.727 : en:01:00:47.727
01:05:55.869 : en:01:05:55.869
01:12:04.779 : en:01:12:04.779
01:17:49.290 : en:01:17:49.290
01:22:34.950 : en:01:22:34.950

Скриншоты

     
-
Other forum [Profile] [PM]
Display posts from previous:    
Reply to topic

The time now is: Today 02:01

All times are GMT + 3 Hours



You cannot post new topics in this forum
You cannot reply to topics in this forum
You cannot edit your posts in this forum
You cannot delete your posts in this forum
You cannot vote in polls in this forum
You cannot attach files in this forum
You cannot download files in this forum