Today is a free download without charge Download

Панасоник Демо 3Д / Panasonic 3D Demonstration [2010, Демо, BDrip, 1080p / 720p] SeparateFiles / Раздельная стереопара

Reply to topic
 
Author
Message

Omen ®

Longevity: 8 years 8 months

Posts: 181087

Торрент-статистика

Post 26-Jan-2016 00:07

[Quote]

Панасоник Демо 3Д / Panasonic 3D Demonstration
Год выпуска: 2010
Страна: Япония
Жанр: Демо
Продолжительность: 00:32:00-Перевод: Не требуется
Русские субтитры: Нет-Описание:
Рекламный диск Панасоника, созданный для популяризации 3D и продвижения 3D телевизоров на рынке.Содержит несколько весьма красочных демонстрационных роликов.-++++++++++++++++++++++++++++++
Дополнительная информация по релизу:
Показывает и в 2D и в 3D
++++++++++++++++++++++++++++++-Содержание:
Key Visual (1:11) - 1080p
Full HD 3D Introduction (4:42) - 1080p
Rome, The Eternal City (2:38) - 1080p
Panasonic 3D Sports (1:27) - 1080p
Astro Boy (2:36) - 1080p
Grand Canyon (1:46) - 1080p
HIPIRA (2:19) - 1080p
Sync Future (1:43) - 1080p
Enjoying The Great Outdoors (3:35) - 720p
Beach Volleyball (2:41) - 720p
Coral Wonderland (2:06) - 720p
Mexico's Mariachi (1:31) - 720p
Sarah Brightman - Shall Be Done (2:42) - 720p-Сэмпл: http://depositfiles.com/files/7qnwm572s-Качество: BDrip
Контейнер: MKV
Формат 3D: SeparateFiles / Раздельная стереопара
Порядок ракурсов: левый ракурс первый
Видео кодек: x264
Аудио кодек: AC3
Видео_1080p: AVC / 1920 х 1080p / 23,976 fps / 12,0 Mbps
Видео_720p: AVC / 1280 х 720p / 60,000 fps / 12,0 Mbps
Аудио: AC3 / 6 ch / 448 Kbps / 48 KHz
Субтитры: Отсутствуют

MediaInfo - 1080p

Общее
Уникальный идентификатор : 107778144679315143168968647227749546895 (0x511550CC6570BD995C0B90BB2AADBB8F)
Полное имя : F:\Reliz\Panasonic 3D Demonstration Disc V1.2\06-Grand Canyon.mkv
Формат : Matroska
Версия формата : Version 4 / Version 2
Размер файла : 313 Мбайт
Продолжительность : 1 м. 47 с.
Общий поток : 24,5 Мбит/сек
Название фильма : Grand Canyon
Программа кодирования : Lavf55.44.100
Библиотека кодирования : Lavf55.44.100
Видео #1
Идентификатор : 1
Формат : AVC
Формат/Информация : Advanced Video Codec
Профиль формата : [email protected]
MultiView_Count : 2
MultiView_Layout : Both Eyes laced in one block (left eye first)
Параметр CABAC формата : Да
Параметр ReFrames формата : 4 кадра
Идентификатор кодека : V_MPEG4/ISO/AVC
Продолжительность : 1 м. 47 с.
Номинальный битрейт : 12,0 Мбит/сек
Ширина : 1920 пикселей
Высота : 1080 пикселей
Соотношение сторон : 16:9
Режим частоты кадров : Постоянный
Частота кадров : 23,976 кадра/сек
Цветовое пространство : YUV
Субдискретизация насыщенности : 4:2:0
Битовая глубина : 8 бит
Тип развёртки : Прогрессивная
Бит/(Пиксели*Кадры) : 0.241
Библиотека кодирования : x264 core 146 r2538 121396c
Настройки программы : cabac=1 / ref=3 / deblock=1:0:0 / analyse=0x3:0x113 / me=hex / subme=7 / psy=1 / psy_rd=1.00:0.00 / mixed_ref=1 / me_range=16 / chroma_me=1 / trellis=1 / 8x8dct=1 / cqm=0 / deadzone=21,11 / fast_pskip=1 / chroma_qp_offset=-2 / threads=3 / lookahead_threads=1 / sliced_threads=0 / nr=0 / decimate=1 / interlaced=0 / bluray_compat=0 / constrained_intra=0 / bframes=3 / b_pyramid=2 / b_adapt=1 / b_bias=0 / direct=1 / weightb=1 / open_gop=0 / weightp=2 / keyint=250 / keyint_min=23 / scenecut=40 / intra_refresh=0 / rc_lookahead=40 / rc=2pass / mbtree=1 / bitrate=12000 / ratetol=1.0 / qcomp=0.60 / qpmin=0 / qpmax=69 / qpstep=4 / cplxblur=20.0 / qblur=0.5 / ip_ratio=1.40 / aq=1:1.00
Default : Да
Forced : Нет
AUTHOR : BD3DRip by serj69
Видео #2
Идентификатор : 2
Формат : AVC
Формат/Информация : Advanced Video Codec
Профиль формата : [email protected]
MultiView_Count : 2
MultiView_Layout : Both Eyes laced in one block (left eye first)
Параметр CABAC формата : Да
Параметр ReFrames формата : 4 кадра
Идентификатор кодека : V_MPEG4/ISO/AVC
Продолжительность : 1 м. 47 с.
Номинальный битрейт : 12,0 Мбит/сек
Ширина : 1920 пикселей
Высота : 1080 пикселей
Соотношение сторон : 16:9
Режим частоты кадров : Постоянный
Частота кадров : 23,976 кадра/сек
Цветовое пространство : YUV
Субдискретизация насыщенности : 4:2:0
Битовая глубина : 8 бит
Тип развёртки : Прогрессивная
Бит/(Пиксели*Кадры) : 0.241
Библиотека кодирования : x264 core 146 r2538 121396c
Настройки программы : cabac=1 / ref=3 / deblock=1:0:0 / analyse=0x3:0x113 / me=hex / subme=7 / psy=1 / psy_rd=1.00:0.00 / mixed_ref=1 / me_range=16 / chroma_me=1 / trellis=1 / 8x8dct=1 / cqm=0 / deadzone=21,11 / fast_pskip=1 / chroma_qp_offset=-2 / threads=3 / lookahead_threads=1 / sliced_threads=0 / nr=0 / decimate=1 / interlaced=0 / bluray_compat=0 / constrained_intra=0 / bframes=3 / b_pyramid=2 / b_adapt=1 / b_bias=0 / direct=1 / weightb=1 / open_gop=0 / weightp=2 / keyint=250 / keyint_min=23 / scenecut=40 / intra_refresh=0 / rc_lookahead=40 / rc=2pass / mbtree=1 / bitrate=12000 / ratetol=1.0 / qcomp=0.60 / qpmin=0 / qpmax=69 / qpstep=4 / cplxblur=20.0 / qblur=0.5 / ip_ratio=1.40 / aq=1:1.00
Default : Да
Forced : Нет
AUTHOR : BD3DRip by serj69
Аудио
Идентификатор : 3
Формат : AC-3
Формат/Информация : Audio Coding 3
Расширение режима : CM (complete main)
Параметр Endianness формата : Big
Идентификатор кодека : A_AC3
Продолжительность : 1 м. 47 с.
Вид битрейта : Постоянный
Битрейт : 448 Кбит/сек
Каналы : 6 каналов
Расположение каналов : Front: L C R, Side: L R, LFE
Частота : 48,0 КГц
Битовая глубина : 16 бит
Метод сжатия : С потерями
Размер потока : 5,72 Мбайт (2%)
Язык : English
Default : Нет
Forced : Нет
-

MediaInfo - 720p

Общее
Уникальный идентификатор : 222257169578243173367721941343239071831 (0xA7352C7FC40155F37B64A7B9EDEAE857)
Полное имя : F:\Reliz\Panasonic 3D Demonstration Disc V1.2\11-Coral Wonderland.mkv
Формат : Matroska
Версия формата : Version 4 / Version 2
Размер файла : 371 Мбайт
Продолжительность : 2 м. 6 с.
Общий поток : 24,6 Мбит/сек
Название фильма : Coral Wonderland
Программа кодирования : Lavf55.44.100
Библиотека кодирования : Lavf55.44.100
Видео #1
Идентификатор : 1
Формат : AVC
Формат/Информация : Advanced Video Codec
Профиль формата : [email protected]
MultiView_Count : 2
MultiView_Layout : Both Eyes laced in one block (left eye first)
Параметр CABAC формата : Да
Параметр ReFrames формата : 4 кадра
Идентификатор кодека : V_MPEG4/ISO/AVC
Продолжительность : 2 м. 6 с.
Номинальный битрейт : 12,0 Мбит/сек
Ширина : 1280 пикселей
Высота : 720 пикселей
Соотношение сторон : 16:9
Режим частоты кадров : Постоянный
Частота кадров : 60,000 кадров/сек
Цветовое пространство : YUV
Субдискретизация насыщенности : 4:2:0
Битовая глубина : 8 бит
Тип развёртки : Прогрессивная
Бит/(Пиксели*Кадры) : 0.217
Библиотека кодирования : x264 core 146 r2538 121396c
Настройки программы : cabac=1 / ref=3 / deblock=1:0:0 / analyse=0x3:0x113 / me=hex / subme=7 / psy=1 / psy_rd=1.00:0.00 / mixed_ref=1 / me_range=16 / chroma_me=1 / trellis=1 / 8x8dct=1 / cqm=0 / deadzone=21,11 / fast_pskip=1 / chroma_qp_offset=-2 / threads=3 / lookahead_threads=1 / sliced_threads=0 / nr=0 / decimate=1 / interlaced=0 / bluray_compat=0 / constrained_intra=0 / bframes=3 / b_pyramid=2 / b_adapt=1 / b_bias=0 / direct=1 / weightb=1 / open_gop=0 / weightp=2 / keyint=250 / keyint_min=25 / scenecut=40 / intra_refresh=0 / rc_lookahead=40 / rc=2pass / mbtree=1 / bitrate=12000 / ratetol=1.0 / qcomp=0.60 / qpmin=0 / qpmax=69 / qpstep=4 / cplxblur=20.0 / qblur=0.5 / ip_ratio=1.40 / aq=1:1.00
Default : Да
Forced : Нет
AUTHOR : BD3DRip by serj69
Видео #2
Идентификатор : 2
Формат : AVC
Формат/Информация : Advanced Video Codec
Профиль формата : [email protected]
MultiView_Count : 2
MultiView_Layout : Both Eyes laced in one block (left eye first)
Параметр CABAC формата : Да
Параметр ReFrames формата : 4 кадра
Идентификатор кодека : V_MPEG4/ISO/AVC
Продолжительность : 2 м. 6 с.
Номинальный битрейт : 12,0 Мбит/сек
Ширина : 1280 пикселей
Высота : 720 пикселей
Соотношение сторон : 16:9
Режим частоты кадров : Постоянный
Частота кадров : 60,000 кадров/сек
Цветовое пространство : YUV
Субдискретизация насыщенности : 4:2:0
Битовая глубина : 8 бит
Тип развёртки : Прогрессивная
Бит/(Пиксели*Кадры) : 0.217
Библиотека кодирования : x264 core 146 r2538 121396c
Настройки программы : cabac=1 / ref=3 / deblock=1:0:0 / analyse=0x3:0x113 / me=hex / subme=7 / psy=1 / psy_rd=1.00:0.00 / mixed_ref=1 / me_range=16 / chroma_me=1 / trellis=1 / 8x8dct=1 / cqm=0 / deadzone=21,11 / fast_pskip=1 / chroma_qp_offset=-2 / threads=3 / lookahead_threads=1 / sliced_threads=0 / nr=0 / decimate=1 / interlaced=0 / bluray_compat=0 / constrained_intra=0 / bframes=3 / b_pyramid=2 / b_adapt=1 / b_bias=0 / direct=1 / weightb=1 / open_gop=0 / weightp=2 / keyint=250 / keyint_min=25 / scenecut=40 / intra_refresh=0 / rc_lookahead=40 / rc=2pass / mbtree=1 / bitrate=12000 / ratetol=1.0 / qcomp=0.60 / qpmin=0 / qpmax=69 / qpstep=4 / cplxblur=20.0 / qblur=0.5 / ip_ratio=1.40 / aq=1:1.00
Default : Да
Forced : Нет
AUTHOR : BD3DRip by serj69
Аудио
Идентификатор : 3
Формат : AC-3
Формат/Информация : Audio Coding 3
Расширение режима : CM (complete main)
Параметр Endianness формата : Big
Идентификатор кодека : A_AC3
Продолжительность : 2 м. 6 с.
Вид битрейта : Постоянный
Битрейт : 448 Кбит/сек
Каналы : 6 каналов
Расположение каналов : Front: L C R, Side: L R, LFE
Частота : 48,0 КГц
Битовая глубина : 16 бит
Метод сжатия : С потерями
Размер потока : 6,74 Мбайт (2%)
Язык : English
Default : Нет
Forced : Нет
-
Other forum [Profile] [PM]
Display posts from previous:    
Reply to topic

The time now is: Today 18:10

All times are GMT + 3 Hours



You cannot post new topics in this forum
You cannot reply to topics in this forum
You cannot edit your posts in this forum
You cannot delete your posts in this forum
You cannot vote in polls in this forum
You cannot attach files in this forum
You cannot download files in this forum