Today is a free download without charge Download

Крепость: щитом и мечом (Фёдор Дмитриев) [2015, Россия, Мультипликация, военная сказка, приключения, HDRip]

Reply to topic
 
Author
Message

Omen ®

Longevity: 8 years 11 months

Posts: 181086

Торрент-статистика

Post 26-Jan-2016 00:01

[Quote]

Крепость: щитом и мечом
Страна: Россия
Жанр: Мультипликация, военная сказка, приключения
Продолжительность: 01:16:43
Год выпуска: 2015
Субтитры: отсутствуют
Режиссёр: Фёдор Дмитриев
Роли озвучивали: Пётр Фёдоров, Евгений Стычкин, Елена Шульман, Екатерина Гороховская, Вадим Никитин, Олег Куликович, Сергей Русскин, Михаил Хрусталёв, Анатолий Петров, и др.
Описание: 1609 год. Идёт война. Польско-Литовские войска взяли в осаду Смоленск, но Русский гарнизон во главе с воеводой Михаилом Шеиным готов держать оборону до конца. Смоленск - главная крепость на пути захватчиков к Москве, и его нельзя сдавать без боя. Об этом знают даже дети. Мальчик Сашка лепит самодельные бомбы из теста и колдует в защиту города - вызывает на помощь царя с огненным щитом и пламенным копьём. Пока волшебный царь не пришёл, Сашка и его друг Фёдор просятся в помощники к воеводе. Им предстоит разрушить коварные планы Польского короля Сигизмунда третьего и справиться с нечистой силой, что по ночам бродит по осаждённой крепости...

Качество: HDRip
Формат: AVI
Видео: XviD 73 MPEG-4, 720x304 (2.35:1) 24.000 fps, ~1214 kbps avg, 0.231 bit/pixel
Аудио: MP-3 Joint stereo, CBR 128 kbps 2 ch, 48.0 KHz

MediaInfo

ОбщееПолное имя : V:\Крепость_щитом_и_мечом_2015_HDRip_[/*spam*/].aviФормат : AVIФормат/Информация : Audio Video InterleaveРазмер файла : 743 МбайтПродолжительность : 1 ч. 16 м.Общий поток : 1351 Кбит/секПрограмма кодирования : VirtualDubModRus 1.5.10.2 (build 2542/release)Библиотека кодирования : VirtualDubMod build 2542/release
ВидеоИдентификатор : 0Формат : MPEG-4 VisualПрофиль формата : Advanced [email protected]Параметр BVOP формата : 2Параметр QPel формата : НетПараметр GMC формата : Без точки переходаПараметр матрицы формата : Default (MPEG)Идентификатор кодека : DX50Идентификатор кодека/Подсказка : DivX 5Продолжительность : 1 ч. 16 м.Битрейт : 1214 Кбит/секШирина : 720 пикселейВысота : 304 пикселяСоотношение сторон : 2,35:1Частота кадров : 24,000 кадра/секЦветовое пространство : YUVСубдискретизация насыщенности : 4:2:0Битовая глубина : 8 битТип развёртки : ПрогрессивнаяМетод сжатия : С потерямиБит/(Пиксели*Кадры) : 0.231Размер потока : 668 Мбайт (90%)Библиотека кодирования : XviD 73
АудиоИдентификатор : 1Формат : MPEG AudioВерсия формата : Version 1Профиль формата : Layer 3Режим : Joint stereoРасширение режима : MS StereoИдентификатор кодека : 55Идентификатор кодека/Подсказка : MP3Продолжительность : 1 ч. 16 м.Вид битрейта : ПостоянныйБитрейт : 128 Кбит/секКаналы : 2 каналаЧастота : 48,0 КГцМетод сжатия : С потерямиРазмер потока : 70,4 Мбайт (9%)Выравнивание : Соединение по промежуткамПродолжительность промежутка : 42 мс. (1,00 видеокадр)Время предзагрузки промежутка : 504 мс.Библиотека кодирования : LAME3.99rНастройки программы : -m j -V 4 -q 2 -lowpass 17 -b 128

Скриншоты


Дополнительная информация

Время раздачи - по возможности.
Other forum [Profile] [PM]
Display posts from previous:    
Reply to topic

The time now is: Today 01:12

All times are GMT + 3 Hours



You cannot post new topics in this forum
You cannot reply to topics in this forum
You cannot edit your posts in this forum
You cannot delete your posts in this forum
You cannot vote in polls in this forum
You cannot attach files in this forum
You cannot download files in this forum