Today is a free download without charge Download

Мистер Пронька / Mister Пронька (Леонид Носырев) [1991 г., рисованный мультфильм, DVB]

Reply to topic
 
Author
Message

Omen ®

Longevity: 7 years 11 months

Posts: 181087

Торрент-статистика

Post 26-Jan-2016 00:01

[Quote]

Мистер Пронька / Mister Пронька Страна: СССР, Союзмультфильм
Жанр: рисованный мультфильм
Год выпуска: 1991
Продолжительность: 00:25:32
Режиссёр: Леонид Носырев
Описание: мультфильм о том, как в Россию приезжает богатый американец с заданием от правительства, обратить в «американску веру» кого-нибудь из русских. Американец находит на рынке оборванца Проньку и заключает с ним пари: он даёт Проньке денег и возможность торговать, и если тот в течение 15 лет не будет никак мыться, то весь доход Пронька может взять себе. Так и получилось. Выдержал Пронька. Так разбогател, что даже сам Царь-Государь был у него в должниках…
Доп. информация: по мотивам сказки-скоморошины Б. Шергина «Пронька Грезной»

Трансляция спутникового канала:
Качество видео: DVB
Формат видео: MPEG-PS
Видео: MPEG2 Video, 720x576 (4:3), 25 fps, 6000 kbps
Аудио: MPEG Audiо, 2 сh, 48 kHz, 192 kbps

MediaInfo

General
Complete name : G:\Мистер Пронька. (1991)_DVB by SLuMeP.mpg
Format : MPEG-PS
File size : 1.13 GiB
Duration : 25mn 32s
Overall bit rate mode : Variable
Overall bit rate : 6 316 Kbps
Video
ID : 224 (0xE0)
Format : MPEG Video
Format version : Version 2
Format profile : [email protected]
Format settings, BVOP : Yes
Format settings, Matrix : Custom
Format settings, GOP : Variable
Format settings, picture st : Frame
Duration : 25mn 32s
Bit rate mode : Variable
Bit rate : 5 999 Kbps
Maximum bit rate : 15.0 Mbps
Width : 720 pixels
Height : 576 pixels
Display aspect ratio : 4:3
Frame rate : 25.000 fps
Standard : PAL
Color space : YUV
Chroma subsampling : 4:2:0
Bit depth : 8 bits
Scan type : Interlaced
Scan order : Top Field First
Compression mode : Lossy
Bits/(Pixel*Frame) : 0.579
Time code of first frame : 00:00:00:00
Time code source : Group of pictures header
GOP, Open/Closed : Open
Stream size : 1.07 GiB (95%)
Audio
ID : 192 (0xC0)
Format : MPEG Audio
Format version : Version 1
Format profile : Layer 2
Duration : 25mn 32s
Bit rate mode : Constant
Bit rate : 192 Kbps
Channel(s) : 2 channels
Sampling rate : 48.0 KHz
Compression mode : Lossy
Delay relative to video : 4ms
Stream size : 35.1 MiB (3%)

Скриншоты


Other forum [Profile] [PM]
Display posts from previous:    
Reply to topic

The time now is: Today 09:46

All times are GMT + 3 Hours



You cannot post new topics in this forum
You cannot reply to topics in this forum
You cannot edit your posts in this forum
You cannot delete your posts in this forum
You cannot vote in polls in this forum
You cannot attach files in this forum
You cannot download files in this forum