Today is a free download without charge Download

Новеллы о космосе (Лев Атаманов) [1973, СССР, Рисованный мультфильм, WEBRip]

Reply to topic
 
Author
Message

Omen ®

Longevity: 7 years 11 months

Posts: 181087

Торрент-статистика

Post 19-Jan-2016 00:00

[Quote]

Новеллы о космосе
Страна: СССР
Жанр: Рисованный мультфильм
Продолжительность: 00:10:05
Год выпуска: 1973
Русские субтитры: нет
Режиссёр: Лев Атаманов
Описание: В 1 новелле рассказывается о космонавте, который опоздал к вылету космического корабля, потому что вынужден был ублажать капризы маленькой девочки. 2 новелла посвящена правилам космического движения и рассказу о маленькой девочке, которая их нарушала, в 3-ей новелле рассказывается что лучше дружить планетами, а не воевать.
Доп. информация: «Союзмультфильм»
Cценарий: Р.Хуснутдинова
Оператор: М.Друян
Композитор: С.Губаидулина
Звукооператор:Г.Мартынюк
Качество: WEBRip
Формат: AVI
Видео: 704x528 (1.33:1), 25 fps, XviD build 50 ~1595 kbps avg, 0.17 bit/pixel
Аудио: 44.100 kHz, MPEG Layer 3, 2 ch, ~192.00 kbps avg
Субтитры: нет

Подробные технические данные

Format : AVIFormat/Info : Audio Video InterleaveFile size : 130 MiBDuration : 10mn 5sOverall bit rate : 1 800 KbpsWriting application : MEncoder SVN-r30881(20100311-gcc4.3.3)Writing library : MPlayer
VideoID : 0Format : MPEG-4 VisualFormat profile : Advanced [email protected] settings, BVOP : 2Format settings, QPel : NoFormat settings, GMC : No warppointsFormat settings, Matrix : Default (H.263)Codec ID : XVIDCodec ID/Hint : XviDDuration : 10mn 5sBit rate : 1 595 KbpsWidth : 704 pixelsHeight : 528 pixelsDisplay aspect ratio : 1.227Original display aspect ratio : 4:3Frame rate : 25.000 fpsColor space : YUVChroma subsampling : 4:2:0Bit depth : 8 bitsScan type : ProgressiveCompression mode : LossyBits/(Pixel*Frame) : 0.172Stream size : 115 MiB (89%)Writing library : XviD 1.2.1 (UTC 2008-12-04)
AudioID : 1Format : MPEG AudioFormat version : Version 1Format profile : Layer 3Mode : Joint stereoMode extension : MS StereoCodec ID : 55Codec ID/Hint : MP3Duration : 10mn 5sBit rate mode : ConstantBit rate : 192 KbpsChannel(s) : 2 channelsSampling rate : 44.1 KHzCompression mode : LossyDelay relative to video : 40msStream size : 13.9 MiB (11%)Alignment : Aligned on interleavesInterleave, duration : 26 ms (0.65 video frame)Interleave, preload duration : 522 ms

сравнение SATRip и WEBRip

Сравнение с http:///*spam*//forum/viewtopic.php?t=3565607
Тут -- http://screenshotcomparison.com/comparison/158596/picture:2

Скриншоты

Other forum [Profile] [PM]
Display posts from previous:    
Reply to topic

The time now is: Today 04:28

All times are GMT + 3 Hours



You cannot post new topics in this forum
You cannot reply to topics in this forum
You cannot edit your posts in this forum
You cannot delete your posts in this forum
You cannot vote in polls in this forum
You cannot attach files in this forum
You cannot download files in this forum