Today is a free download without charge Download

Донни Дарко / Donnie Darko (Ричард Келли) [2001 г., фантастика, триллер, драма, детектив, BDRip]

Reply to topic
 
Author
Message

Delia ®

Gender:

Longevity: 9 years 1 month

Posts: 1821

Торрент-статистика

Post 23-Feb-2011 13:08

[Quote]

Донни ДаркоDonnie Darko Год выпуска: 2001
Страна: США
Жанр: фантастика, триллер, драма, детектив
Продолжительность: 113 мин.
Перевод: Профессиональный (многоголосый, закадровый)
Режиссер: Ричард Келли
Продюссер: Адам Филдс, Нэнси Джавонен, Шон МакКиттрик
Сценарий: Ричард Келли
Бюджет: $6 000 000
Премьера в мире: 19 января 2001
R - Лицам до 17 лет обязательно присутствие взрослого
8.30 (226 350)

В ролях: Джейк Джилленхол, Джена Мэлоун, Мэгги Джилленхол, Джеймс Дювал, Патрик Суэйзи, Ной Уайл, Дрю Бэрримор, Сет Роген, Кэтрин Росс, Мэри МакДоннел
Описание: К своим 16 годам старшеклассник Донни уже знает, что такое смерть. После несчастного случая, едва не стоившего ему жизни, Донни открывает в себе способности изменять время и судьбу. Перемены, случившиеся с ним, пугают всех, кто его окружает — родителей, сестер, учителей, друзей, любимую девушку.
Качество: BDRip(BluRay 1080p AVC)
Формат: MKV
Видео кодек: H.264
Аудио кодек: AC3
Видео: English, 2499 Кбит/сек, 1280*544 (2,35:1), в 23,976 кадр/сек, AVC ([email protected])~0.150bit/pixel
Аудио: Russian, 384 Кбит/сек, 48,0 КГц, 16 бит, 6 канала(ов), AC-3
Аудио#:English, ,224 Кбит/сек, 48,0 КГц, 16 бит, 6 канала(ов), AC-3
Субтитры:Russian UTF-8

Media Info:

Уникальный идентификатор : 223315978655086298933878419934538838287 (0xA80117D12799235AAA5F5C2D2583310F)
Полное имя : E:\торрент\Donnie Darko(2001) BDRip 720 .mkv
Формат : Matroska
Размер файла : 2,46 Гбайт
Продолжительность : 1 ч. 53 м.
Общий поток : 3107 Кбит/сек
Дата кодирования : UTC 2011-02-23 07:42:21
Программа кодирования : mkvmerge v4.5.0 ('Speed of Light') built on Feb 1 2011 02:10:32
Библиотека кодирования : libebml v1.2.0 + libmatroska v1.1.0
Видео
Идентификатор : 1
Формат : AVC
Формат/Информация : Advanced Video Codec
Профиль формата : [email protected]
Параметр CABAC формата : Да
Параметр ReFrames формата : 16 кадры
Идентификатор кодека : V_MPEG4/ISO/AVC
Продолжительность : 1 ч. 53 м.
Битрейт : 2499 Кбит/сек
Ширина : 1280 пикс.
Высота : 544 пикс.
Соотношение сторон : 2,35:1
Частота кадров : 23,976 кадр/сек
Цветовое пространство : YUV
Подвыборка цветности : 4:2:0
Битовая глубина : 8 бит
Тип развёртки : Прогрессивная
Бит/(Пиксели*Кадры) : 0.150
Размер потока : 1,93 Гбайт (78%)
Библиотека кодирования : x264 core 114 r1913 5fd3dce
Настройки программы : cabac=1 / ref=16 / deblock=1:-3:-3 / analyse=0x3:0x133 / me=umh / subme=7 / psy=1 / psy_rd=1.00:0.00 / mixed_ref=1 / me_range=32 / chroma_me=1 / trellis=2 / 8x8dct=1 / cqm=0 / deadzone=21,11 / fast_pskip=1 / chroma_qp_offset=-2 / threads=6 / sliced_threads=0 / nr=0 / decimate=1 / interlaced=0 / constrained_intra=0 / bframes=6 / b_pyramid=2 / b_adapt=1 / b_bias=0 / direct=1 / weightb=1 / open_gop=0 / weightp=2 / keyint=250 / keyint_min=23 / scenecut=40 / intra_refresh=0 / rc_lookahead=40 / rc=2pass / mbtree=1 / bitrate=2499 / ratetol=1.0 / qcomp=0.80 / qpmin=10 / qpmax=51 / qpstep=4 / cplxblur=20.0 / qblur=0.5 / ip_ratio=1.40 / aq=1:1.00
Язык : English
Аудио #1
Идентификатор : 2
Формат : AC-3
Формат/Информация : Audio Coding 3
Расширение режима : CM (complete main)
Идентификатор кодека : A_AC3
Продолжительность : 1 ч. 53 м.
Вид битрейта : Постоянный
Битрейт : 384 Кбит/сек
Канал(ы) : 6 канала(ов)
Расположение каналов : Front: L C R, Side: L R, LFE
Частота : 48,0 КГц
Битовая глубина : 16 бит
Метод сжатия : С потерями
Задержка видео : 1 мс.
Размер потока : 311 Мбайт (12%)
Язык : Russian
Аудио #2
Идентификатор : 3
Формат : AC-3
Формат/Информация : Audio Coding 3
Расширение режима : CM (complete main)
Идентификатор кодека : A_AC3
Продолжительность : 1 ч. 53 м.
Вид битрейта : Постоянный
Битрейт : 224 Кбит/сек
Канал(ы) : 6 канала(ов)
Расположение каналов : Front: L C R, Side: L R, LFE
Частота : 48,0 КГц
Битовая глубина : 16 бит
Метод сжатия : С потерями
Размер потока : 181 Мбайт (7%)
Язык : English
Текст
Идентификатор : 4
Формат : UTF-8
Идентификатор кодека : S_TEXT/UTF8
Идентификатор кодека/Информация : UTF-8 Plain Text

Скриншоты

        
Релиз от :

_________________
Человек – это канат, натянутый между животным и сверхчеловеком, – канат над пропастью.
В человеке ценно то, что он мост, а не цель. Фридрих Ницше


Last edited by Delia on 2011-08-25 22:22; edited 3 times in total
Other forum [Profile] [PM]
Display posts from previous:    
Reply to topic

The time now is: Today 17:55

All times are GMT + 3 Hours



You cannot post new topics in this forum
You cannot reply to topics in this forum
You cannot edit your posts in this forum
You cannot delete your posts in this forum
You cannot vote in polls in this forum
You cannot attach files in this forum
You cannot download files in this forum