Today is a free download without charge Download

Сербский фильм / Srpski film (Срджан Спасоевич) [2010 г., ужасы, триллер, BDRip](L1)

Reply to topic
 
Author
Message

Region_13 ®

Gender:

Longevity: 7 years 8 months

Posts: 782

Location: Мальдивы

Торрент-статистика

Post 15-Jan-2016 16:11

[Quote]

Сербский фильм / Srpski film
Год выпуска: 2010
Страна: Сербия
Жанр: ужасы, триллер
Продолжительность: 104 мин. / 01:44
Перевод: Любительский (одноголосый закадровый)[Zamez]
Режиссер: Срджан Спасоевич
Продюссер: Срджан Спасоевич, Никола Пантелич, Драголюб Войнов
Сценарий: Александр Радивоевич, Срджан Спасоевич
Бюджет: неизвестно
Премьера в мире: 15 марта 2010
+18


В ролях: Срджан Тодорович, Сергей Трифунович, Елена Гаврилович, Катарина Жутич, Слободан Бестис, Ана Сакич, Лэна Богданович, Люка Миятович, Анжела Ненадович, Ненад Херакович

Описание: Звезда порно принимает роль в фильме, не понимая, что режиссер этого фильма убийца. После начала съемок, фильм превращается в кровавый ужастик…
Качество: BDRip
Формат: AVI
Видео кодек: XviD
Аудио кодек: AC3
Видео: 720x304 (2.44:1), 24.000 fps, XviD build 50 ~1765 kbps avg, 0.36 bit/pixel
Аудио: 48 kHz, AC3 Dolby Digital, 2/0 (L,R) ch, ~192.00 kbps avg

Скриншоты

     

Доп.Информация

Перевод и озвучка является совместным плодом пользователей уважаемого трекера: zmeyplissken, capam, ykponkekc, myhajlo2, zamez

Mediainfo

General
Complete name : D:\Релизы\Сербский фильм (2010) BDRip 1,45.avi
Format : AVI
Format/Info : Audio Video Interleave
File size : 1.45 GiB
Duration : 1h 43mn
Overall bit rate : 2 007 Kbps
Writing application : VirtualDubMod 1.5.10.3 | www.virtualdub-fr.org || (build 2550/release)
Writing library : VirtualDubMod build 2550/release
Video
ID : 0
Format : MPEG-4 Visual
Format profile : Advanced [email protected]
Format settings, BVOP : 1
Format settings, QPel : No
Format settings, GMC : No warppoints
Format settings, Matrix : Custom
Codec ID : XVID
Codec ID/Hint : XviD
Duration : 1h 43mn
Bit rate : 1 805 Kbps
Width : 720 pixels
Height : 304 pixels
Display aspect ratio : 2.35:1
Frame rate : 24.000 fps
Color space : YUV
Chroma subsampling : 4:2:0
Bit depth : 8 bits
Scan type : Progressive
Compression mode : Lossy
Bits/(Pixel*Frame) : 0.344
Stream size : 1.31 GiB (90%)
Writing library : XviD 73
Audio
ID : 1
Format : AC-3
Format/Info : Audio Coding 3
Mode extension : CM (complete main)
Format settings, Endianness : Big
Codec ID : 2000
Duration : 1h 43mn
Bit rate mode : Constant
Bit rate : 192 Kbps
Channel count : 2 channels
Channel positions : Front: L R
Sampling rate : 48.0 KHz
Bit depth : 16 bits
Compression mode : Lossy
Stream size : 142 MiB (10%)
Alignment : Split accross interleaves
Interleave, duration : 42 ms (1.00 video frame)
Interleave, preload duration : 500 ms
Внимание! Фильм может нанести вред психическому состоянию человека и не рекомендован лицам младше 18, беременным и кормящим матерям, людям со слабой психикой и впечатлительным лицам.

_________________
Other forum [Profile] [PM]
Display posts from previous:    
Reply to topic

The time now is: Today 10:04

All times are GMT + 3 Hours



You cannot post new topics in this forum
You cannot reply to topics in this forum
You cannot edit your posts in this forum
You cannot delete your posts in this forum
You cannot vote in polls in this forum
You cannot attach files in this forum
You cannot download files in this forum