Today is a free download without charge Download

Порожденный / Begotten (Э. Элиас Мэридж) [1990 г., ужасы, фэнтези, DVDRip]

Reply to topic
 
Author
Message

Region_13 ®

Gender:

Longevity: 7 years 8 months

Posts: 782

Location: Мальдивы

Торрент-статистика

Post 15-Jan-2016 15:24

[Quote]

Порожденный / Begotten
Год выпуска: 1990
Страна: США
Жанр: ужасы, фэнтези
Продолжительность: 72 мин. / 01:12
Перевод: Не требуется
Режиссер: Э. Элиас Мэридж
Продюссер: Э. Элиас Мэридж
Сценарий: Э. Элиас Мэридж
Бюджет: $33 000
Премьера в мире: 12 февраля 1990
+18


В ролях: Brian Salzberg, Донна Демпси, Стефен Чарльз Бэрри, James Gandia, Дэниэл Харкинс, Майкл Филипс, Эрик Славин, Артур Стритер, Адольфо Варгас, Гарфилд Уайт
Описание: Бог стар и безумен, он потрошит себя бритвой в заброшенном доме, одинокий и никому не нужный, Мать Земля дождавшись смерти, сделала его ещё теплому телу минет и оплодотворила себя семенем. Далеко в пустыне, она родила уродливого Сына Земли – Плоть на Кости где его подобрали прокаженные и отправились с ним в странствие.
Уж не знаю, куда они там отправились, но участи паренька не позавидуешь.
Зрелище экстремально жесткое и медленное, с потрошением, кишками, конвульсиями, а грязная, контрастная картинка лишь усиливает эффект. Ни черта не понятно, но видно, что происходит что-то жуткое. От экрана оторваться невозможно, саундтрек вполне позволяет включить еще что-нибудь дополнительно – дрон или польку – кому что нравится. И есть странное ощущение, что смотришь в замочную скважину и весь этот ужас происходит прямо сейчас. Очень новогоднее кино.
К сожалению, это был единственный гениальный фильм Мериджа – режиссер отправился в голливуд. И если "Тень вампира" [Shadow of the Vampire, 2000] еще вполне достойный фильм, то "Нулевой подозреваемый" [Suspect Zero, 2004] – обычный триллер. Аминь.

Качество: DVDRip
Формат: AVI
Видео кодек: XviD
Аудио кодек: MPEG Audio
Видео: 576x432 (1.33:1), 23.976 fps, DivX ;-) MPEG-4 Low-Motion ~1159 kbps avg, 0.19 bit/pixel
Аудио: 44.100 kHz, MPEG Layer 3, 2 ch, ~131.54 kbps avg

Скриншоты

           

Mediainfo

General
Complete name : D:\Релизы\Begotten.avi
Format : AVI
Format/Info : Audio Video Interleave
File size : 673 MiB
Duration : 1h 12mn
Overall bit rate mode : Variable
Overall bit rate : 1 304 Kbps
Movie name : Begotten
Director : E. Elias Merhige
Subject : Begotten
Writing application : Nandub v1.0rc2
Writing library : Nandub build 1853/release
Comment : Splatter, Merhige, Fantasy, Horror
Video
ID : 0
Format : MPEG-4 Visual
Codec ID : DIV3
Codec ID/Hint : DivX 3 Low
Duration : 1h 12mn
Bit rate : 1 160 Kbps
Width : 576 pixels
Height : 432 pixels
Display aspect ratio : 4:3
Frame rate : 23.976 fps
Color space : YUV
Chroma subsampling : 4:2:0
Bit depth : 8 bits
Compression mode : Lossy
Bits/(Pixel*Frame) : 0.194
Stream size : 599 MiB (89%)
Audio
ID : 1
Format : MPEG Audio
Format version : Version 1
Format profile : Layer 3
Mode : Joint stereo
Mode extension : MS Stereo
Codec ID : 55
Codec ID/Hint : MP3
Duration : 1h 12mn
Bit rate mode : Variable
Bit rate : 128 Kbps
Channel count : 2 channels
Sampling rate : 44.1 KHz
Compression mode : Lossy
Stream size : 67.9 MiB (10%)
Alignment : Aligned on interleaves
Interleave, duration : 26 ms (0.63 video frame)
Interleave, preload duration : 475 ms
Writing library : LAME3.92
Encoding settings : -m j -V 4 -q 2 -lowpass 17.5 --abr 128

_________________
Other forum [Profile] [PM]
Display posts from previous:    
Reply to topic

The time now is: Today 13:47

All times are GMT + 3 Hours



You cannot post new topics in this forum
You cannot reply to topics in this forum
You cannot edit your posts in this forum
You cannot delete your posts in this forum
You cannot vote in polls in this forum
You cannot attach files in this forum
You cannot download files in this forum