Today is a free download without charge Download

Песочные часы (Ефрем Пружанский) [1987, СССР, Рисованный мультфильм, WEBRip]

Reply to topic
 
Author
Message

Omen ®

Longevity: 7 years 11 months

Posts: 181087

Торрент-статистика

Post 14-Jan-2016 09:03

[Quote]

Песочные часы
Страна: СССР
Жанр: Рисованный мультфильм
Продолжительность: 00:09:43
Год выпуска: 1987
Русские субтитры: нет
Режиссёр: Ефрем Пружанский
Описание: Фильм по одноименной сказке В. Каверина. Об удивительном событии, случившимся однажды в пионерлагере. В отряде появился новый воспитатель, которого ребята прозвали Борода. Мальчик Петя заметил, что у нового воспитателя довольно странное поведение - утром он бодрый и веселый, а к вечеру становится печальным и угрюмым. Заглянув как-то вечером в комнаты Бороды, Петя с удивлением заметил, что воспитатель стоит на... голове. Петя поспешил поделиться увиденным с Таней и вместе они решили выяснить, почему Борода любит стоять на голове...
Доп. информация: «Киевнаучфильм»
Авторы сценария: Б. Крыжановский, Е. Пружанский
Художник-постановщик: Ю. Скирда
Композитор: В. Быстряков
Кинооператор: А. Мухин
Звукооператор: И. Погон
Художники-мультипликаторы: Н. Чурилова, Н. Устенко, К. Чикин, А. Педан, А. Лавров
Ассистенты: О. Малова, И. Дивишек, В. Боженок, В. Езерский
Монтаж: О. Деряжной
Качество: WEBRip
Формат: AVI
Видео: 704x528 (1.33:1), 25 fps, XviD MPEG-4 ~2100 kbps avg, 0.23 bit/pixel
Аудио: 48 kHz, AC3 Dolby Digital, 2/0 (L,R) ch, ~192.00 kbps avg
Субтитры: нет

Подробные технические данные

Format : AVIFormat/Info : Audio Video InterleaveFile size : 160 MiBDuration : 9mn 43sOverall bit rate : 2 302 KbpsWriting application : VirtualDubModRus 1.5.10.2 (build 2542/release)Copyright : Rutracker.orgComment : WEBRip by dvdss
VideoID : 0Format : MPEG-4 VisualFormat profile : Advanced [email protected] settings, BVOP : 2Format settings, QPel : NoFormat settings, GMC : No warppointsFormat settings, Matrix : CustomCodec ID : XVIDCodec ID/Hint : XviDDuration : 9mn 43sBit rate : 2 101 KbpsWidth : 704 pixelsHeight : 528 pixelsDisplay aspect ratio : 5:4Original display aspect ratio : 4:3Frame rate : 25.000 fpsColor space : YUVChroma subsampling : 4:2:0Bit depth : 8 bitsScan type : ProgressiveCompression mode : LossyBits/(Pixel*Frame) : 0.226Stream size : 146 MiB (91%)Writing library : XviD 65
AudioID : 1Format : AC-3Format/Info : Audio Coding 3Mode extension : CM (complete main)Format settings, Endianness : BigCodec ID : 2000Duration : 9mn 43sBit rate mode : ConstantBit rate : 192 KbpsChannel(s) : 2 channelsChannel positions : Front: L RSampling rate : 48.0 KHzBit depth : 16 bitsCompression mode : LossyStream size : 13.4 MiB (8%)Alignment : Aligned on interleavesInterleave, duration : 40 ms (1.00 video frame)Interleave, preload duration : 512 ms

Скриншоты

Other forum [Profile] [PM]
Display posts from previous:    
Reply to topic

The time now is: Today 01:22

All times are GMT + 3 Hours



You cannot post new topics in this forum
You cannot reply to topics in this forum
You cannot edit your posts in this forum
You cannot delete your posts in this forum
You cannot vote in polls in this forum
You cannot attach files in this forum
You cannot download files in this forum