Today is a free download without charge Download

Савва. Сердце воина (Максим Фадеев) [2015, Россия, Мультипликация, сказка, приключения, WEB-DLRip]

Reply to topic
 
Author
Message

Omen ®

Longevity: 7 years 11 months

Posts: 181087

Торрент-статистика

Post 12-Jan-2016 03:00

[Quote]

Савва. Сердце воина
Страна: Россия
Жанр: Мультипликация, сказка, приключения
Продолжительность: 01:27:06
Год выпуска: 2015
Русские (и другие) субтитры: отсутствуют
Режиссёр: Максим Фадеев
Роли озвучивали: Константин Хабенский, Фёдор Бондарчук, Армен Джигарханян, Григорий Лепс, Сергей Шнуров, Михаил Галустян, Глюкоза, Сергей Гармаш, Лолита Милявская, Николай Басков, и др.
Описание (с КиноПоиска): История о мальчике Савве десяти лет, который живёт в маленькой лесной деревне. Когда-то деревню от врагов защищали благородные белые волки. Но однажды волки исчезли и на деревню напала банда свирепых Гиен. Савве удаётся сбежать в лес, где он знакомится с Ангой — последним белым волком.
Анга рассказывает Савве о могущественном Волшебнике, который живёт на горе и может помочь Савве освободить его деревню. Но, к сожалению, эту гору окружает огромное войско, под предводительством злобной Мамы ЖоЗи — трёхголовой королевы обезьян.
Справляясь с непреодолимыми трудностями, Савва и Анга начинают свой длинный и опасный путь на гору. По пути к ним присоединяются и другие путешественники: Пусик — странное розовое пушистое существо; Фафл — самоуверенный тип, похожий на француза, который в действительности является заколдованным полубароном и вынужден носить на плече короля комаров; принцессу болотного племени Нанти и других. У всех есть свои личные причины, чтобы идти к Волшебнику. По пути к своей цели, друзьям предстоит преодолеть множество препятствий, узнать страшные тайны и вступить в битву с войском обезьян и коварной Мамой ЖоЗи.

Качество: WEB-DLRip
Формат: AVI
Видео: XviD 73 MPEG-4, 720x304, 2.35:1, 24.000 fps, ~2046 kbps avg, 0.390 bit/pixel
Аудио: AC-3 Dolby Digital, CBR 384 kbps 6 ch, Front: L C R, Side: L R, LFE, 48.0 KHz

MediaInfo

ОбщееПолное имя : V:\Савва_Сердце_воина_2015_WEB-DLRip_[/*spam*/].aviФормат : AVIФормат/Информация : Audio Video InterleaveРазмер файла : 1,48 ГбайтПродолжительность : 1 ч. 27 м.Общий поток : 2440 Кбит/секНазвание фильма : Савва_Сердце_воина_2015_WEB-DLRip_[/*spam*/]Режиссёр : OGORODNIKOFFFЖанр : Сказка, приключенияПрограмма кодирования : VirtualDubMod 1.5.10.3 | www.virtualdub-fr.org || (build 2550/release)Формат оригинала/Имя : МультипликацияПравообладатель : rutracker.orgПримечание : Дата рипа 9 января 2016 года
ВидеоИдентификатор : 0Формат : MPEG-4 VisualПрофиль формата : Advanced Si[email protected]Параметр BVOP формата : 1Параметр QPel формата : НетПараметр GMC формата : Без точки переходаПараметр матрицы формата : Default (MPEG)Идентификатор кодека : DX50Идентификатор кодека/Подсказка : DivX 5Продолжительность : 1 ч. 27 м.Битрейт : 2046 Кбит/секШирина : 720 пикселейВысота : 304 пикселяСоотношение сторон : 2,35:1Частота кадров : 24,000 кадра/секЦветовое пространство : YUVСубдискретизация насыщенности : 4:2:0Битовая глубина : 8 битТип развёртки : ПрогрессивнаяМетод сжатия : С потерямиБит/(Пиксели*Кадры) : 0.390Размер потока : 1,25 Гбайт (84%)Библиотека кодирования : XviD 73
АудиоИдентификатор : 1Формат : AC-3Формат/Информация : Audio Coding 3Расширение режима : CM (complete main)Параметр Endianness формата : BigИдентификатор кодека : 2000Продолжительность : 1 ч. 27 м.Вид битрейта : ПостоянныйБитрейт : 384 Кбит/секКаналы : 6 каналовРасположение каналов : Front: L C R, Side: L R, LFEЧастота : 48,0 КГцБитовая глубина : 16 битМетод сжатия : С потерямиРазмер потока : 239 Мбайт (16%)Выравнивание : Разделение по промежуткамПродолжительность промежутка : 42 мс. (1,00 видеокадр)Время предзагрузки промежутка : 500 мс.

Скриншоты


Время раздачи - по возможности.
Other forum [Profile] [PM]
Display posts from previous:    
Reply to topic

The time now is: Today 02:59

All times are GMT + 3 Hours



You cannot post new topics in this forum
You cannot reply to topics in this forum
You cannot edit your posts in this forum
You cannot delete your posts in this forum
You cannot vote in polls in this forum
You cannot attach files in this forum
You cannot download files in this forum