Today is a free download without charge Download

Богатырша / Bogatyrsha (Ольга Лопато) [2016 г., мультфильм, WEBRip]

Reply to topic
 
Author
Message

Region_13 ®

Gender:

Longevity: 6 years 9 months

Posts: 782

Location: Мальдивы

Торрент-статистика

Post 11-Jan-2016 19:24

[Quote]

Богатырша / Bogatyrsha
Год выпуска: 2016
Страна: Россия
Жанр: мультфильм
Продолжительность: 79 мин. / 01:19
Перевод: Не требуется
Режиссер: Ольга Лопато
Продюссер: Геворг Нерсисян, Армен Манасарян, Ваге Саргсян
Сценарий: Дмитрий Соболев
Бюджет: неизвестно
Премьера в мире: 1 января 2016, «Парадиз»
зрителям, достигшим 6 лет


В ролях: Анна Хилькевич (Роса, озвучка), Алексей Чумаков (средняя голова дракона, озвучка), Гарик Харламов (правая голова, озвучка), Тимур Батрутдинов (левая голова, озвучка), Михаил Пореченков (Бориполк, озвучка), Алёна Бабенко (Рогнеда, озвучка), Борис Щербаков (князь, озвучка), Мирослава Карпович (княжна, озвучка), Армен Джигарханян (дед Пихто, озвучка), Василиса Эльдарова (Роса в детстве, озвучка)

Описание: ..И было предсказание славному витязю Бориполку, что у него родится сын, который станет великим воином и спасет Русь от великой напасти. Но, как всегда, все вышло наоборот: у героя родилась... дочка. А спасения Руси никто не отменял. И как сражаться с врагом, когда у него три головы, и каждая со своими выкрутасами?
Качество:WEBRip
Формат: AVI
Видео кодек: XviD
Аудио кодек: AC3
Видео: XviD, 720x304 (2.35:1), 2136 kbps, 25 fps, 0,390 bpp
Аудио: AC3 / 2.0 / 48 kHz / 448 kbps / 16 bit:

Скриншоты

     

MEDIAINFO


General
Название : C:\торрент\тор\B0Ga3ir6a.2015.O.WEBRip.1400MB.avi
Формат : AVI
Формат/Info : Audio Video Interleave
Размер файла : 1.37 GiB
Длительность : 1h 15mn
Общий Битрейт : 2 594 Kbps
Создано приложением : VirtualDubMod 1.5.10.3 | www.virtualdub-fr.org || (build 2550/release)
Writing library : VirtualDubMod build 2550/release
Video
ID : 0
Формат : MPEG-4 Visual
Формат profile : Advanced [email protected]
Формат настройки, BVOP : 2
Формат настройки, QPel : No
Формат настройки, GMC : No warppoints
Формат настройки, Matrix : Default (MPEG)
Кодек ID : XVID
Кодек ID/Hint : XviD
Длительность : 1h 15mn
Битрейт : 2 136 Kbps
Width : 720 пикселей
Высота : 304 пикселей
Соотношение кадра : 2.35:1
Частота кадров : 25.000 fps
Цветопередача : YUV
Chroma subsampling : 4:2:0
Разрядность : 8 bits
Тип сканирования : Progressive
Режим сжатия : Lossy
Bits/(Pixel*Frame) : 0.390
Размер потока : 1.13 GiB (82%)
Writing library : XviD 1.2.1 (UTC 2008-12-04)
Audio
ID : 1
Формат : AC-3
Формат/Info : Audio Coding 3
Расширение режима : CM (complete main)
Кодек ID : 2000
Длительность : 1h 15mn
Битрейт mode : Constant
Битрейт : 448 Kbps
Channel(s) : 2 канала
Channel positions : Front: L R
Частота : 48.0 KHz
Разрядность : 16 bits
Режим сжатия : Lossy
Размер потока : 242 MiB (17%)
Выравнивание : Split accross interleaves
Interleave, Длительность : 40 ms (1.00 video frame)
Interleave, preload Длительность : 500 ms
Закрыть

О РЕЛИЗЕ

Внимание, в релизе присутствует реклама казино. Что делать? ждать когда выложат релиз без этого (в них всегда указанно что релиз без рекламы) либо лицензию. Запретить такие темы нельзя, пока нет альтернативы.

_________________
Other forum [Profile] [PM]
Display posts from previous:    
Reply to topic

The time now is: Today 05:15

All times are GMT + 3 Hours



You cannot post new topics in this forum
You cannot reply to topics in this forum
You cannot edit your posts in this forum
You cannot delete your posts in this forum
You cannot vote in polls in this forum
You cannot attach files in this forum
You cannot download files in this forum