Today is a free download without charge Download

Гость (Игорь Копылов) [2013, Россия, триллер, драма, криминал, HDTV 1080i] + Original Rus

Reply to topic
 
Author
Message

Omen ®

Longevity: 8 years 10 months

Posts: 181086

Торрент-статистика

Post 10-Jan-2016 21:00

[Quote]

Гость
Страна: Россия
Студия: Триикс Медиа
Жанр: триллер, драма, криминал
Год выпуска: 2013
Продолжительность: 01:30:00
Перевод: Не требуется
Cубтитры: нет
Оригинальная аудиодорожка: русский
Режиссер: Игорь Копылов
В ролях: Александр Аравушкин, Александра Мареева, Илья Носков, Роман Агеев, Станислав Казаку, Наталья Высочанская, Олег Малышев, Дмитрий Лебедев, Сергей Сафронов
Описание: Сбежавшему из следственного изолятора рецидивисту Кольцову судьба неожиданно подбрасывает шанс. Случайный водитель, подвозивший Кольцова до вокзала, гибнет в перестрелке с полицией, спровоцированной опасным попутчиком. Перед этим водитель рассказывает ему о своей дочери Вере, которую он не видел с рождения и собирался навестить после двадцатипятилетней разлуки и смерти ее матери.

Sample
Тип релиза: HDTV 1080i
Контейнер: TS
Видео: MPEG4 AVC Video, H264, 16:9, 1920x1080, 25 fps, 7864 kbps
Аудио: Russian (MP2, 2 ch, 192 kbps, 16 bits, 48.0 KHz) - оригинал

MediaInfo

General
ID : 1 (0x1)
Complete name : K:\Гость 2013 HDTV 1080i.ts
Format : MPEG-TS
File size : 5.33 GiB
Duration : 1h 30mn
Overall bit rate mode : Variable
Overall bit rate : 8 476 Kbps
Video
ID : 901 (0x385)
Menu ID : 1095 (0x447)
Format : AVC
Format/Info : Advanced Video Codec
Format profile : [email protected]
Format settings, CABAC : Yes
Format settings, ReFrames : 2 frames
Codec ID : 27
Duration : 1h 30mn
Bit rate : 7 864 Kbps
Width : 1 920 pixels
Height : 1 080 pixels
Display aspect ratio : 16:9
Frame rate : 25.000 fps
Color space : YUV
Chroma subsampling : 4:2:0
Bit depth : 8 bits
Scan type : MBAFF
Bits/(Pixel*Frame) : 0.152
Stream size : 4.94 GiB (93%)
Color primaries : BT.709
Transfer characteristics : BT.709
Matrix coefficients : BT.709
Audio
ID : 902 (0x386)
Menu ID : 1095 (0x447)
Format : MPEG Audio
Format version : Version 1
Format profile : Layer 2
Codec ID : 3
Duration : 1h 30mn
Bit rate mode : Constant
Bit rate : 192 Kbps
Channel count : 2 channels
Sampling rate : 48.0 KHz
Compression mode : Lossy
Stream size : 124 MiB (2%)
Language : Russian

Скриншоты

Other forum [Profile] [PM]
Display posts from previous:    
Reply to topic

The time now is: Today 13:26

All times are GMT + 3 Hours



You cannot post new topics in this forum
You cannot reply to topics in this forum
You cannot edit your posts in this forum
You cannot delete your posts in this forum
You cannot vote in polls in this forum
You cannot attach files in this forum
You cannot download files in this forum