Today is a free download without charge Download

Гражданин поэт. Прогон года (Вера Кричевская) [2012, Документальный, DVDRip]

Reply to topic
 
Author
Message

Meshanik ®

Gender:

Longevity: 9 years

Posts: 3866

Location: Los Angeles

Торрент-статистика

Post 07-Jul-2012 16:45

[Quote]

Гражданин поэт. Прогон года- Страна: Россия
Жанр: документальный
Год выпуска: 2012
Продолжительность: 01:29:52-Перевод: не требуется
Cубтитры: нет-Режиссер: Вера Кричевская
В ролях: Михаил Ефремов, Андрей Васильев, Дмитрий Быков-Описание: «Гражданин поэт. Прогон года» — это не продолжение одноименного сатирического проекта, ставшего бешено популярным в России в 2011—2012 гг. И даже не его итог. Это фильм-воспоминание о самом живом, мощном и интересном годе в политической жизни страны за последние 20 лет. Фильм-размышление о причинах стремительного пробуждения гражданской позиции миллионов людей. Фильм-послание в наше недалекое будущее- - Тип релиза: DVDRip
Контейнер: AVI-Видео: 720x400 (1.80:1), 25 fps, XviD build 65 ~1862 kbps avg, 0.26 bit/pixel
Аудио: 48 kHz, AC3 Dolby Digital, 3/2 (L,C,R,l,r) + LFE ch, ~448 kbps-

Отчет MI

Complete name: Grazhdanin.poet.Progon.goda.2012.DVDRip.avi
Format: AVI
Format/Info: Audio Video Interleave
File size: 1.46 GiB
Duration: 1h 29mn
Overall bit rate: 2 320 Kbps
Video
ID: 0
Format: MPEG-4 Visual
Format profile: Advanced [email protected]
Format settings, BVOP: Yes
Format settings, QPel: No
Format settings, GMC: No warppoints
Format settings, Matrix: Custom
Codec ID: XVID
Codec ID/Hint: XviD
Duration: 1h 29mn
Bit rate: 1 862 Kbps
Width: 720 pixels
Height : 400 pixels
Display aspect ratio: 16:9
Frame rate: 25.000 fps
Color space: YUV
Chroma subsampling: 4:2:0
Bit depth: 8 bits
Scan type: Progressive
Bits/(Pixel*Frame): 0.259
Stream size: 1.17 GiB (80%)
Writing library: XviD 65
Audio
ID: 1
Format: AC-3
Format/Info: Audio Coding 3
Mode extension: CM (complete main)
Codec ID: 2000
Duration: 1h 29mn
Bit rate mode: Constant
Bit rate: 448 Kbps
Channel(s): 6 channels
Channel positions: Front: L C R, Side: L R, LFE
Sampling rate: 48.0 KHz
Bit depth: 16 bits
Stream size: 288 MiB (19%)
Alignment: Split accross interleaves
Interleave, duration: 40 ms (1.00 video frame)
Interleave, preload duration: 500 ms

Скриншоты

                 

Обложка и блин 600 dpi

http://multi-up.com/722755


Last edited by Meshanik on 2012-07-08 21:43; edited 1 time in total
Other forum [Profile] [PM]

Dracula

Longevity: 7 years 8 months

Posts: 11287

Торрент-статистика

Post 08-Jul-2012 21:44 (after 1 day 4 hours)

Топик был перенесен из форума Наше кино (DVD) в форум Фильмы 2012 (новинки)


kogesan
 
Display posts from previous:    
Reply to topic

The time now is: Today 19:06

All times are GMT + 3 Hours



You cannot post new topics in this forum
You cannot reply to topics in this forum
You cannot edit your posts in this forum
You cannot delete your posts in this forum
You cannot vote in polls in this forum
You cannot attach files in this forum
You cannot download files in this forum