Today is a free download without charge Download

(Symphonic power metal) Stratovarius - Under Flaming Winter Skies - Live In Tampere (2012) [720p] BDRip

Reply to topic
 
Author
Message

Igor 1968 ®

Gender:

Longevity: 8 years 11 months

Posts: 140

Location: Харьков Украина

Торрент-статистика

Post 06-Jul-2012 18:54

[Quote]

Stratovarius - Under Flaming Winter Skies - Live In Tampere (2012) [720p] BDRip- Оригинальное название: Stratovarius - Under Flaming Winter Skies - Live In Tampere
Год выпуска: 2012
Жанр: Symphonic power metal
Описание фильма:
О музыке: Stratovarius (объединение слов "Stratocaster" (марка электрогитары фирмы Fender) и "Stradivarius" (итальянский скрипичных дел мастер)) была основана в 1984 году тремя парнями из Хельсинки (Финляндия): барабанщиком и вокалистом Туомо Лассила, басистом Джоном Вихервя и гитаристом Стаффаном Страхлманом. До этого ребята играли в том же составе под названием Black Water. Музыка раннего Stratovarius очень отличалась от того, чем это является сегодня. В ней явно чувствовалось влияние Black Sabbath и Оззи Осборна. В конце 1984 года басист Джон покинул группу, а ему на замену был взят Йирки Лентоне, ранее выступавший вместе с Тимо Толкки в команде Road Block. В 1985-м Стаффану надоело играть в Стратовариусе, и за неделю до планировавшегося концерта в Дании он ушел из группы. Туомо Лассила позвонил Тимо Толкки и попросил его присоединиться к ансамблю, и тот согласился. В то время роль вокалиста все еще исполнял Туомо, но скоро стало очевидно, что его голосовой диапазон не подходит для музыки, которую исполняли Stratovarius. Но подходящего певца найти не удалось и вокальные партии взялся исполнять Толкки. Так началось восхождение группы к Power Metal Олимпу !!!

Треклист

01. Intro - instrumental
02. Under Flaming Skies
03. I Walk To My Own Song
04. Speed Of Light
05. Kiss Of Judas
06. Deep Unknown
07. Guitar Solo
08. Eagleheart
09. Paradise
10. Visions
11. Bass Solo
12. Coming Home
13. Legions Of The Twillight
14. Darkest Hours
15. Jörg Speech
16. Burn
17. Behind Blue Eyes
18. Winter Skies
19. Keyboard Solo
20. Black Diamond
21. Father Time
22. Hunting High And Low
Режиссер: earMUSIC / Edel Germany GmbH
Актеры: Stratovarius
Продолжительность: 01:52:19
Перевод: Отсутствует
Видеокодек: MPEG-4 AVC/H.264
Битрейт видео: ~6851 Кбит/с
Размер кадра: 1280x720
Качество видео: BDRip
Аудиокодек: DTS
Битрейт аудио: 6 ch, 1510 Кбит/c

Скриншоты:

       
       
   

MediaInfo

Общее
Уникальный идентификатор : 185905786382278090931629789588197360045 (0x8BDC26EEE6CD1A1C9DC22446BAAA41AD)
Полное имя : D:\Downloads\Stratovarius.Live.In.Tampere.2012.mkv
Формат : Matroska
Версия формата : Version 2
Размер файла : 6,56 Гбайт
Продолжительность : 1 ч. 52 м.
Общий поток : 8362 Кбит/сек
Дата кодирования : UTC 2012-07-03 20:48:49
Программа кодирования : mkvmerge v5.6.0 ('Kenya Kane') built on May 27 2012 16:44:04
Библиотека кодирования : libebml v1.2.3 + libmatroska v1.3.0
Видео
Идентификатор : 1
Формат : AVC
Формат/Информация : Advanced Video Codec
Профиль формата : [url=mailto:[email protected]][email protected][/url]
Параметр CABAC формата : Да
Параметр ReFrames формата : 5 кадров
Идентификатор кодека : V_MPEG4/ISO/AVC
Продолжительность : 1 ч. 52 м.
Битрейт : 6851 Кбит/сек
Ширина : 1280 пикселей
Высота : 720 пикселей
Соотношение сторон : 16:9
Частота кадров : 23,976 кадра/сек
Цветовое пространство : YUV
Субдискретизация насыщенности : 4:2:0
Битовая глубина : 8 бит
Тип развёртки : Прогрессивная
Бит/(Пиксели*Кадры) : 0.310
Размер потока : 5,25 Гбайт (80%)
Библиотека кодирования : x264 core 125 r2200 999b753
Настройки программы : cabac=1 / ref=5 / deblock=1:0:0 / analyse=0x3:0x133 / me=umh / subme=7 / psy=1 / psy_rd=1.00:0.00 / mixed_ref=1 / me_range=16 / chroma_me=1 / trellis=1 / 8x8dct=1 / cqm=0 / deadzone=21,11 / fast_pskip=0 / chroma_qp_offset=-2 / threads=18 / lookahead_threads=3 / sliced_threads=0 / nr=0 / decimate=1 / interlaced=0 / bluray_compat=0 / constrained_intra=0 / bframes=3 / b_pyramid=2 / b_adapt=1 / b_bias=0 / direct=1 / weightb=1 / open_gop=0 / weightp=2 / keyint=240 / keyint_min=23 / scenecut=40 / intra_refresh=0 / rc_lookahead=40 / rc=2pass / mbtree=1 / bitrate=6851 / ratetol=1.0 / qcomp=0.60 / qpmin=10 / qpmax=51 / qpstep=4 / cplxblur=20.0 / qblur=0.5 / ip_ratio=1.40 / aq=1:1.00
Default : Да
Forced : Нет
Аудио
Идентификатор : 2
Формат : DTS
Формат/Информация : Digital Theater Systems
Идентификатор кодека : A_DTS
Продолжительность : 1 ч. 52 м.
Вид битрейта : Постоянный
Битрейт : 1510 Кбит/сек
Каналы : 6 каналов
Расположение каналов : Front: L C R, Side: L R, LFE
Частота : 48,0 КГц
Битовая глубина : 24 бит
Метод сжатия : С потерями
Размер потока : 1,18 Гбайт (18%)
Default : Да
Forced : Нет
Other forum [Profile] [PM]
Similar theme
Forum Topic Author Torrent Replies Last Post
./templates/default/images/folder_dl.gif Rock (Symphonic Progressive) Emerson Lake & Palmer - Pictures At An Exhibition [Gatefold/Limited Edition/ Remastered] - 2008 (1971), FLAC (image+.cue), lossless Omen
0 | 1

0 | 1089

0

2013-09-11 07:41
Omen Latest
./templates/default/images/folder_dl.gif Rock (Symphonic/Progressive Rock) [CD] Royal Philharmonic Orchestra - Plays Prog Rock Classics - 2015, FLAC (image+.cue), lossless Omen
1 | 0

0 | 1700

13

2015-05-31 21:00
Omen Latest
./templates/default/images/folder_dl.gif Rock (Symphonic Rock, Progressive Rock) Дискография Trans-Siberian Orchestra (9 релизов) - 1996-2015, MP3 (tracks), 320 kbps Omen
1 | 0

0 | 3052

15

2015-11-13 15:00
Omen Latest
./templates/default/images/folder_dl.gif Metal (Symphonic/Technical Death Metal) [CD] Whorion - The Reign Of The 7th Sector - 2015, FLAC (image+.cue), lossless Omen
1 | 0

0 | 920

0

2016-03-15 00:00
Omen Latest
./templates/default/images/folder_dl.gif Metal (Symphonic, Progressive Power Metal) Serenity - Lionheart (Digipack, 2CD) - 2017 [FLAC, image +.cue, lossless] sergej644
1 | 0

0 | 2700

9

2018-01-27 18:45
sergej644 Latest
Display posts from previous:    
Reply to topic

The time now is: Today 15:20

All times are GMT + 3 Hours



You cannot post new topics in this forum
You cannot reply to topics in this forum
You cannot edit your posts in this forum
You cannot delete your posts in this forum
You cannot vote in polls in this forum
You cannot attach files in this forum
You cannot download files in this forum