Today is a free download without charge Download

Путешествие Марко Поло, или Как была открыта Америка (Александр Гурьев) [2013, Россия, мультфильм, WEBRip]

Reply to topic
 
Author
Message

Omen ®

Longevity: 7 years 11 months

Posts: 181087

Торрент-статистика

Post 04-Jan-2016 09:00

[Quote]

Путешествие Марко Поло, или Как была открыта Америка
Страна: Россия
Жанр: мультфильм
Продолжительность: 00:13:00
Год выпуска: 2013
Режиссёр: Александр Гурьев
Описание: По рисункам Гоши Ляховецкого.
В город прибывает странствующий артист, который в стихах излагает правдивую историю о путешествиях Марко Поло. Среди недоверчивых зрителей присутствует любознательный мальчик Кристобаль...
Качество: WEBRip
Формат: AVI
Видео: 1955 kbps, 704х528 (5:4), 25.000 fps, MPEG-4 Visual (XviD)
Аудио: 192 kbps, 44.1 kHz, 2 channels, MPEG Audio (MP3)
Субтитры: отсутствуют

Подробные технические данные

GeneralComplete name : Путешествие Марко Поло (2013).aviFormat : AVIFormat/Info : Audio Video InterleaveFile size : 201 MiBDuration : 13mn 0sOverall bit rate : 2 159 KbpsWriting application : MEncoder SVN-r30881(20100311-gcc4.3.3)Writing library : MPlayer
VideoID : 0Format : MPEG-4 VisualFormat profile : Advanced [email protected] settings, BVOP : 2Format settings, QPel : NoFormat settings, GMC : No warppointsFormat settings, Matrix : Default (H.263)Codec ID : XVIDCodec ID/Hint : XviDDuration : 13mn 0sBit rate : 1 955 KbpsWidth : 704 pixelsHeight : 528 pixelsDisplay aspect ratio : 4:3Frame rate : 25.000 fpsColor space : YUVChroma subsampling : 4:2:0Bit depth : 8 bitsScan type : ProgressiveCompression mode : LossyBits/(Pixel*Frame) : 0.210Stream size : 182 MiB (91%)Writing library : XviD 1.2.1 (UTC 2008-12-04)
AudioID : 1Format : MPEG AudioFormat version : Version 1Format profile : Layer 3Mode : Joint stereoMode extension : MS StereoCodec ID : 55Codec ID/Hint : MP3Duration : 13mn 0sBit rate mode : ConstantBit rate : 192 KbpsChannel(s) : 2 channelsSampling rate : 44.1 KHzCompression mode : LossyDelay relative to video : 40msStream size : 17.9 MiB (9%)Alignment : Aligned on interleavesInterleave, duration : 26 ms (0.65 video frame)Interleave, preload duration : 522 msWriting library : LAME3.98

Скриншоты

Other forum [Profile] [PM]
Similar theme
Forum Topic Author Torrent Replies Last Post
./templates/default/images/folder_dl.gif Обучающая и научно-популярная литература Лотман Юрий Михайлович - "Письма русского путешественника" Карамзина и их место в развитии русской культуры [И. В. Калинин (ЛИ), (ЛИ), 1987 г., 192 kbps, MP3] Omen
1 | 0

0 | 757

1

2015-11-20 15:00
Omen Latest
./templates/default/images/folder_dl.gif Фильмы 2011-2020 Удивительное путешествие доктора Дулиттла / Dolittle (Стивен Гейган) [2020 г., приключения, комедия, семейный, фэнтези, BDRip]MVO | HDRezka Studio kilmister777
1 | 0

0 | 600

0

2020-03-31 11:14
kilmister777 Latest
Display posts from previous:    
Reply to topic

The time now is: Today 22:52

All times are GMT + 3 Hours



You cannot post new topics in this forum
You cannot reply to topics in this forum
You cannot edit your posts in this forum
You cannot delete your posts in this forum
You cannot vote in polls in this forum
You cannot attach files in this forum
You cannot download files in this forum