Today is a free download without charge Download

Время травмы (Александр Гурьев) [2011, Россия, мультфильм, экранизация, WEBRip]

Reply to topic
 
Author
Message

Omen ®

Longevity: 7 years 11 months

Posts: 181087

Торрент-статистика

Post 03-Jan-2016 09:00

[Quote]

Время травмы
Страна: Россия
Жанр: мультфильм, экранизация
Продолжительность: 00:13:09
Год выпуска: 2011
Режиссёр: Александр Гурьев
Описание: По мотивам сказок Игоря Жукова.
Как-то раз глупо простудился царевич под дождём петербургским, да и подумал как бы хорошо было время вспять повернуть. Отправился он к придворному механику, а у того уже изобретена машина времени, как раз испытывать собирается...
Качество: WEBRip
Формат: AVI
Видео: 2393 kbps, 704х528 (4:3), 25.000 fps, MPEG-4 Visual (XviD)
Аудио: 192 kbps, 44.1 kHz, 2 channels, MPEG Audio (MP3)
Субтитры: отсутствуют

Подробные технические данные

GeneralComplete name : Время травмы (2011).aviFormat : AVIFormat/Info : Audio Video InterleaveFile size : 244 MiBDuration : 13mn 9sOverall bit rate : 2 595 KbpsWriting application : MEncoder SVN-r30881(20100311-gcc4.3.3)Writing library : VirtualDub build 35491/release
VideoID : 0Format : MPEG-4 VisualFormat profile : Advanced [email protected] settings, BVOP : 2Format settings, QPel : NoFormat settings, GMC : No warppointsFormat settings, Matrix : Default (H.263)Codec ID : XVIDCodec ID/Hint : XviDDuration : 13mn 9sBit rate : 2 393 KbpsWidth : 704 pixelsHeight : 528 pixelsDisplay aspect ratio : 4:3Frame rate : 25.000 fpsColor space : YUVChroma subsampling : 4:2:0Bit depth : 8 bitsScan type : ProgressiveCompression mode : LossyBits/(Pixel*Frame) : 0.258Stream size : 225 MiB (92%)Writing library : XviD 64
AudioID : 1Format : MPEG AudioFormat version : Version 1Format profile : Layer 3Mode : Joint stereoMode extension : MS StereoCodec ID : 55Codec ID/Hint : MP3Duration : 13mn 9sBit rate mode : ConstantBit rate : 192 KbpsChannel(s) : 2 channelsSampling rate : 44.1 KHzCompression mode : LossyStream size : 18.1 MiB (7%)Alignment : Split accross interleavesInterleave, duration : 40 ms (1.00 video frame)Interleave, preload duration : 500 msWriting library : LAME3.98

Скриншоты

Other forum [Profile] [PM]
Display posts from previous:    
Reply to topic

The time now is: Today 15:36

All times are GMT + 3 Hours



You cannot post new topics in this forum
You cannot reply to topics in this forum
You cannot edit your posts in this forum
You cannot delete your posts in this forum
You cannot vote in polls in this forum
You cannot attach files in this forum
You cannot download files in this forum