Today is a free download without charge Download

Красные шапочки (Александр Гурьев) [2009, Россия, мультфильм, экранизация, WEBRip]

Reply to topic
 
Author
Message

Omen ®

Longevity: 7 years 11 months

Posts: 181087

Торрент-статистика

Post 02-Jan-2016 09:00

[Quote]

Красные шапочки
Страна: Россия
Жанр: мультфильм, экранизация
Продолжительность: 00:13:03
Год выпуска: 2009
Режиссёр: Александр Гурьев
Описание: По рассказу Артура Гиваргизова.
Времена нынче не те, и Красные Шапочки какие-то странные. Может быть, это призраки? Волки в лесу чувствуют себя неуютно...
Качество: WEBRip
Формат: AVI
Видео: 2267 kbps, 704х528 (5:4), 25.000 fps, MPEG-4 Visual (XviD)
Аудио: 192 kbps, 44.1 kHz, 2 channels, MPEG Audio (MP3)
Субтитры: отсутствуют

Подробные технические данные

GeneralComplete name : Красные шапочки (2009).aviFormat : AVIFormat/Info : Audio Video InterleaveFile size : 231 MiBDuration : 13mn 3sOverall bit rate : 2 471 KbpsWriting application : MEncoder SVN-r30881(20100311-gcc4.3.3)Writing library : MPlayer
VideoID : 0Format : MPEG-4 VisualFormat profile : Advanced [email protected] settings, BVOP : 2Format settings, QPel : NoFormat settings, GMC : No warppointsFormat settings, Matrix : Default (H.263)Codec ID : XVIDCodec ID/Hint : XviDDuration : 13mn 3sBit rate : 2 267 KbpsWidth : 704 pixelsHeight : 528 pixelsDisplay aspect ratio : 5:4Original display aspect ratio : 4:3Frame rate : 25.000 fpsColor space : YUVChroma subsampling : 4:2:0Bit depth : 8 bitsScan type : ProgressiveCompression mode : LossyBits/(Pixel*Frame) : 0.244Stream size : 212 MiB (92%)Writing library : XviD 1.2.1 (UTC 2008-12-04)
AudioID : 1Format : MPEG AudioFormat version : Version 1Format profile : Layer 3Mode : Joint stereoMode extension : MS StereoCodec ID : 55Codec ID/Hint : MP3Duration : 13mn 3sBit rate mode : ConstantBit rate : 192 KbpsChannel(s) : 2 channelsSampling rate : 44.1 KHzCompression mode : LossyDelay relative to video : 40msStream size : 17.9 MiB (8%)Alignment : Aligned on interleavesInterleave, duration : 26 ms (0.65 video frame)Interleave, preload duration : 522 msWriting library : LAME3.98

Скриншоты

Other forum [Profile] [PM]
Similar theme
Forum Topic Author Torrent Replies Last Post
./templates/default/images/folder_dl.gif Обучающее видео Юлия Коченкова, Дина Краснова | Как стать бухгалтером-профессионалом за 24 часа. От чайника до начальника (2013) [PCRec] UndegraundMen
1 | 0

0 | 1158

12

2013-10-23 21:48
UndegraundMen Latest
Display posts from previous:    
Reply to topic

The time now is: Today 13:10

All times are GMT + 3 Hours



You cannot post new topics in this forum
You cannot reply to topics in this forum
You cannot edit your posts in this forum
You cannot delete your posts in this forum
You cannot vote in polls in this forum
You cannot attach files in this forum
You cannot download files in this forum