Сегодня идет свободное скачивание без начисления Download

Да, возможно... / Да, нет, наверное /Definitely, Maybe (Адам Брукс) [2008 г., драма, мелодрама, комедия, BDRip 1080p

Ответить на тему
 
Автор
Сообщение

Delia ®

Пол:

Стаж: 8 лет 11 месяцев

Сообщений: 1822

Торрент-статистика

Пост 21-Фев-2011 12:31

[Цитировать]

Да, возможно...Definitely, Maybe Год выпуска: 2008
Страна: США
Жанр: драма, мелодрама, комедия
Продолжительность: 112 мин.
Перевод: Профессиональный (многоголосый, закадровый)
Режиссер: Адам Брукс
Продюссер: Тим Беван, Эрик Феллнер, Лиза Чейсин
Сценарий: Адам Брукс
Премьера в мире: 24 января 2008
7.30 (37 104)

В ролях: Райан Рейнольдс, Эн Нгуйен, Мэттью Мэйсон, Рик Дёрби, Сакина Джэффри, Боб Вилтфонг, Райдер Чейсин, Фиона Лэйн, Дэна Эскелсон, Блейк Бенитез
Описание: Никогда не поздно вернуться назад... и, возможно, обрести счастье. Уилл Хэйс — нью-йоркский папаша, слегка за тридцать. Его развод в самом разгаре, когда десятилетняя дочь Майя начинает задавать отцу вопросы о его жизни до брака. Уилл рассказывает про свои взлеты и падения: соседка Эмили, лучшая подруга и родственная душа Эйприл, свободолюбивая Саммер... Три романа... три разбитых сердца. Майя складывает кусочки романтической головоломки, и ей открывается, что любовь не бывает простой... а Уилл понимает, что в делах сердечных никогда не поздно рискнуть еще раз.
Качество: BDRip(Blu-ray / 1080p)
Формат: MKV
Видео кодек: H.264
Аудио кодек: AC3
Видео: English, 4771 Кбит/сек, 1920*816 (2,35:1), в 23,976 кадр/сек, AVC ([email protected])~0.127bit/pixel
Аудио: Russian, 448 Кбит/сек, 48,0 КГц, 16 бит, 2 канала(ов), AC-3
Аудио:English, 384 Кбит/сек, 48,0 КГц, 16 бит, 6 канала(ов), AC-3
Субтитры: русские , английские

Media Info:

Уникальный идентификатор : 178214057923460268966987885351551070584 (0x8612C770E7E09EDAB35F44C6F8DB7178)
Полное имя : E:\торрент\Definitely, Maybe(2008) BDRip 1080p.mkv
Формат : Matroska
Размер файла : 4,37 Гбайт
Продолжительность : 1 ч. 51 м.
Общий поток : 5600 Кбит/сек
Дата кодирования : UTC 2011-02-21 08:20:19
Программа кодирования : mkvmerge v4.5.0 ('Speed of Light') built on Feb 1 2011 02:10:32
Библиотека кодирования : libebml v1.2.0 + libmatroska v1.1.0
Видео
Идентификатор : 1
Формат : AVC
Формат/Информация : Advanced Video Codec
Профиль формата : [email protected]
Параметр CABAC формата : Да
Параметр ReFrames формата : 10 кадры
Параметры GOP формата : M=6, N=32
Идентификатор кодека : V_MPEG4/ISO/AVC
Продолжительность : 1 ч. 51 м.
Битрейт : 4771 Кбит/сек
Ширина : 1920 пикс.
Высота : 816 пикс.
Соотношение сторон : 2,35:1
Частота кадров : 23,976 кадр/сек
Цветовое пространство : YUV
Подвыборка цветности : 4:2:0
Битовая глубина : 8 бит
Тип развёртки : Прогрессивная
Бит/(Пиксели*Кадры) : 0.127
Размер потока : 3,63 Гбайт (83%)
Библиотека кодирования : x264 core 114 r1900 60ef1f8
Настройки программы : cabac=1 / ref=10 / deblock=1:-3:-3 / analyse=0x3:0x133 / me=umh / subme=7 / psy=1 / psy_rd=1.00:0.00 / mixed_ref=1 / me_range=32 / chroma_me=1 / trellis=2 / 8x8dct=1 / cqm=0 / deadzone=21,11 / fast_pskip=1 / chroma_qp_offset=-2 / threads=6 / sliced_threads=0 / nr=0 / decimate=1 / interlaced=0 / constrained_intra=0 / bframes=5 / b_pyramid=2 / b_adapt=1 / b_bias=0 / direct=1 / weightb=1 / open_gop=0 / weightp=2 / keyint=250 / keyint_min=23 / scenecut=40 / intra_refresh=0 / rc_lookahead=40 / rc=2pass / mbtree=1 / bitrate=4771 / ratetol=1.0 / qcomp=0.80 / qpmin=10 / qpmax=51 / qpstep=4 / cplxblur=20.0 / qblur=0.5 / ip_ratio=1.40 / aq=1:1.00
Язык : English
Аудио #1
Идентификатор : 2
Формат : AC-3
Формат/Информация : Audio Coding 3
Расширение режима : CM (complete main)
Идентификатор кодека : A_AC3
Продолжительность : 1 ч. 51 м.
Вид битрейта : Постоянный
Битрейт : 448 Кбит/сек
Канал(ы) : 2 канала(ов)
Расположение каналов : Front: L R
Частота : 48,0 КГц
Битовая глубина : 16 бит
Метод сжатия : С потерями
Размер потока : 358 Мбайт (8%)
Язык : Russian
Аудио #2
Идентификатор : 3
Формат : AC-3
Формат/Информация : Audio Coding 3
Расширение режима : CM (complete main)
Идентификатор кодека : A_AC3
Продолжительность : 1 ч. 51 м.
Вид битрейта : Постоянный
Битрейт : 384 Кбит/сек
Канал(ы) : 6 канала(ов)
Расположение каналов : Front: L C R, Side: L R, LFE
Частота : 48,0 КГц
Битовая глубина : 16 бит
Метод сжатия : С потерями
Размер потока : 307 Мбайт (7%)
Язык : English
Текст #1
Идентификатор : 4
Формат : UTF-8
Идентификатор кодека : S_TEXT/UTF8
Идентификатор кодека/Информация : UTF-8 Plain Text
Язык : Russian
Текст #2
Идентификатор : 5
Формат : UTF-8
Идентификатор кодека : S_TEXT/UTF8
Идентификатор кодека/Информация : UTF-8 Plain Text
Меню
00:00:00.000 : en:00:00:00.000
00:05:56.856 : en:00:05:56.856
00:11:45.038 : en:00:11:45.038
00:18:52.840 : en:00:18:52.840
00:21:40.758 : en:00:21:40.758
00:27:51.503 : en:00:27:51.503
00:31:52.828 : en:00:31:52.828
00:38:15.627 : en:00:38:15.627
00:42:16.909 : en:00:42:16.909
00:50:41.163 : en:00:50:41.163
00:58:33.510 : en:00:58:33.510
01:04:29.824 : en:01:04:29.824
01:09:41.177 : en:01:09:41.177
01:14:06.859 : en:01:14:06.859
01:19:59.128 : en:01:19:59.128
01:27:16.565 : en:01:27:16.565
01:33:17.634 : en:01:33:17.634
01:36:32.620 : en:01:36:32.620
01:40:58.511 : en:01:40:58.511
01:46:54.074 : en:01:46:54.074

Скриншоты

        
Релиз от:

_________________
Человек – это канат, натянутый между животным и сверхчеловеком, – канат над пропастью.
В человеке ценно то, что он мост, а не цель. Фридрих Ницше


Последний раз редактировалось: Delia (2011-08-25 22:19), всего редактировалось 2 раз(а)
Вне форума [Профиль] [ЛС]
Показать сообщения:    
Ответить на тему

Текущее время: Сегодня 20:45

Часовой пояс: GMT + 3



Вы не можете начинать темы
Вы не можете отвечать на сообщения
Вы не можете редактировать свои сообщения
Вы не можете удалять свои сообщения
Вы не можете голосовать в опросах
Вы не можете прикреплять файлы к сообщениям
Вы не можете скачивать файлы