Today is a free download without charge Download

Охотники / Որսորդներ (Роберт Саакянц) [1977, СССР, музыкальный мультфильм, WEBRip]

Reply to topic
 
Author
Message

Omen ®

Longevity: 7 years 11 months

Posts: 181087

Торрент-статистика

Post 01-Jan-2016 15:00

[Quote]

Охотники / Որսորդներ
Страна: СССР (Армянская республика)
Жанр: музыкальный мультфильм
Продолжительность: 00:09:33
Год выпуска: 1977
Перевод: русские интертитры
Режиссёр: Роберт Саакянц
Композитор: Давид Азарян
Поют: А. Абрамян, С. Сейранян, С. Леван, Л. Долина, Н. Саргсян
Описание: По мотивам басен Хачатура Абовяна из сборника "Развлечение в часы досуга".
Шуточный мюзикл о том, как четыре глупца - Месроп, Казар, Сероб и Кероб - ходили на охоту.
Доп. информация: 2-я премия по разделу мультфильмов - ΧΙ Всесоюзный кинофестиваль в Ереване (1978)
Качество: WEBRip
Формат: AVI
Видео: 1496 kbps, 640х480 (4:3), 25.000 fps, MPEG-4 Visual (XviD)
Аудио: 128 kbps, 44.1 kHz, 2 channels, MPEG Audio (MP3)
Субтитры: английские - hardsub

Подробные технические данные

GeneralComplete name : Охотники (1977).aviFormat : AVIFormat/Info : Audio Video InterleaveFile size : 112 MiBDuration : 9mn 33sOverall bit rate : 1 634 KbpsWriting library : VirtualDub build 35491/release
VideoID : 0Format : MPEG-4 VisualFormat profile : Advanced [email protected] settings, BVOP : 2Format settings, QPel : NoFormat settings, GMC : No warppointsFormat settings, Matrix : Default (H.263)Codec ID : XVIDCodec ID/Hint : XviDDuration : 9mn 33sBit rate : 1 496 KbpsWidth : 640 pixelsHeight : 480 pixelsDisplay aspect ratio : 4:3Frame rate : 25.000 fpsColor space : YUVChroma subsampling : 4:2:0Bit depth : 8 bitsScan type : ProgressiveCompression mode : LossyBits/(Pixel*Frame) : 0.195Stream size : 102 MiB (92%)Writing library : XviD 64
AudioID : 1Format : MPEG AudioFormat version : Version 1Format profile : Layer 3Mode : Joint stereoMode extension : MS StereoCodec ID : 55Codec ID/Hint : MP3Duration : 9mn 33sBit rate mode : ConstantBit rate : 128 KbpsChannel(s) : 2 channelsSampling rate : 44.1 KHzCompression mode : LossyStream size : 8.73 MiB (8%)Alignment : Split accross interleavesInterleave, duration : 40 ms (1.00 video frame)Interleave, preload duration : 501 ms

Скриншоты

Other forum [Profile] [PM]
Display posts from previous:    
Reply to topic

The time now is: Today 05:43

All times are GMT + 3 Hours



You cannot post new topics in this forum
You cannot reply to topics in this forum
You cannot edit your posts in this forum
You cannot delete your posts in this forum
You cannot vote in polls in this forum
You cannot attach files in this forum
You cannot download files in this forum