Today is a free download without charge Download

Рыба моей мечты / Salmon Fishing in the Yemen (Лассе Халльстрём / Lasse Hallstrom) [2011, Великобритания, драма, мелодрама, комедия, BDRip 720p]

Reply to topic
 
Author
Message

Meshanik ®

Gender:

Longevity: 8 years 10 months

Posts: 3866

Location: Los Angeles

Торрент-статистика

Post 05-Jul-2012 12:13

[Quote]

Salmon Fishing in the Yemen Год выпуска: 2011
Жанр: драма, мелодрама, комедия
Страна: Великобритания
Студия: Kudos Film and Television / BBC Films / Davis Films
Продолжительность: 01:47:22
Перевод: Профессиональный (многоголосый закадровый) [лицензия]
Cубтитры: английские
Оригинальная аудиодорожка: английский-Режиссер: Лассе ХалльстрёмВ ролях: Юэн МакГрегор, Эмили Блант, Кристин Скотт Томас, Амр Вакид, Катрин Стэдмен, Том Мисон, Рэйчел Стирлинг, Том Бирд, Джилл Бейкер, Конлет Хилл-В ролях: Юэн МакГрегор, Эмили Блант, Кристин Скотт Томас, Амр Вакид, Катрин Стэдмен, Том Мисон, Рэйчел Стирлинг, Том Бирд, Джилл Бейкер, Конлет Хилл-Описание: Доктор Альфред Джонс из Лондонского Центра рыболовства получает от некоего таинственного шейха странное предложение: ввести в Йемене спортивные соревнования по ловле лосося. Доктор Джонс отказывается, но абсурдный с научной точки зрения проект попадается на глаза британским политикам, видящим в предложении шейха почти неограниченные возможности. И тут начинается бурная эпистолярная деятельность всех персонажей от премьер-министра до стенографисток, ловля лосося в которой не имеет ровно никакого значения, кроме как отвлечь общественность от более важных вещей, например, от войны в Ираке. Доводы доктора Джонса о громком провале громкого проекта никого не волнуют, впрочем, герой продолжает пытаться жить своей жизнью, будучи сначала пешкой, а затем и жертвой политической игры.Дополнительно: Сохранены оригинальные чаптеры как на Blu-Ray.-Тип релиза: BDRip 720p
Контейнер: MKV
Видео: AVC at 5 300 Kbps, 1280 x 534 (2.397) at 23.976 fps
Аудио 1: Russian: AC-3 at 384 Kbps, 6 channels, 48.0 KHz
Аудио 2: English: DTS at 1 510 Kbps, 6 channels, 48.0 KHz

MediaInfo

General
Unique ID : 204118675326096909955535008397142540362 (0x998FD3AFD8196AFF8A9681C4F7B4404A)
Complete name : D:\Torrent\Films\Ryba.moej.mechty.P.BDRip.720p.mkv
Format : Matroska
Format version : Version 2
File size : 5.40 GiB
Duration : 1h 47mn
Overall bit rate : 7 195 Kbps
Movie name : IRONCLUB
Encoded date : UTC 2012-06-30 07:53:05
Writing application : mkvmerge v4.9.1 ('Ich will') сборка от Jul 11 2011 23:53:15
Writing library : libebml v1.2.1 + libmatroska v1.1.1
Video
ID : 1
Format : AVC
Format/Info : Advanced Video Codec
Format profile : [url=mailto:[email protected]][email protected][/url]
Format settings, CABAC : Yes
Format settings, ReFrames : 12 frames
Codec ID : V_MPEG4/ISO/AVC
Duration : 1h 47mn
Bit rate : 5 300 Kbps
Width : 1 280 pixels
Height : 534 pixels
Display aspect ratio : 2.40:1
Frame rate : 23.976 fps
Color space : YUV
Chroma subsampling : 4:2:0
Bit depth : 8 bits
Scan type : Progressive
Bits/(Pixel*Frame) : 0.323
Stream size : 3.87 GiB (72%)
Title : Salmon Fishing in the Yemen (2011) BDRip 720p HDChina
Writing library : x264 core 125 r2200 999b753
Encoding settings : cabac=1 / ref=12 / deblock=1:-3:-3 / analyse=0x3:0x113 / me=umh / subme=10 / psy=1 / psy_rd=1.15:0.00 / mixed_ref=1 / me_range=32 / chroma_me=1 / trellis=2 / 8x8dct=1 / cqm=0 / deadzone=21,11 / fast_pskip=0 / chroma_qp_offset=-2 / threads=18 / lookahead_threads=3 / sliced_threads=0 / nr=0 / decimate=0 / interlaced=0 / bluray_compat=0 / constrained_intra=0 / bframes=8 / b_pyramid=2 / b_adapt=2 / b_bias=0 / direct=3 / weightb=1 / open_gop=0 / weightp=2 / keyint=240 / keyint_min=24 / scenecut=40 / intra_refresh=0 / rc_lookahead=120 / rc=2pass / mbtree=1 / bitrate=5300 / ratetol=1.0 / qcomp=0.70 / qpmin=0 / qpmax=69 / qpstep=4 / cplxblur=20.0 / qblur=0.5 / ip_ratio=1.40 / aq=1:1.10
Language : English
Default : Yes
Forced : Yes
Audio #1
ID : 2
Format : AC-3
Format/Info : Audio Coding 3
Mode extension : CM (complete main)
Format settings, Endianness : Big
Codec ID : A_AC3
Duration : 1h 47mn
Bit rate mode : Constant
Bit rate : 384 Kbps
Channel(s) : 6 channels
Channel positions : Front: L C R, Side: L R, LFE
Sampling rate : 48.0 KHz
Bit depth : 16 bits
Compression mode : Lossy
Stream size : 295 MiB (5%)
Title : DD 5.1 @! 384 kbps - MVO, R5
Language : Russian
Default : Yes
Forced : Yes
Audio #2
ID : 3
Format : DTS
Format/Info : Digital Theater Systems
Codec ID : A_DTS
Duration : 1h 47mn
Bit rate mode : Constant
Bit rate : 1 510 Kbps
Channel(s) : 6 channels
Channel positions : Front: L C R, Side: L R, LFE
Sampling rate : 48.0 KHz
Bit depth : 24 bits
Compression mode : Lossy
Stream size : 1.13 GiB (21%)
Title : DTS 5.1 @ 1536 kbps
Language : English
Default : No
Forced : No
Text
ID : 4
Format : UTF-8
Codec ID : S_TEXT/UTF8
Codec ID/Info : UTF-8 Plain Text
Language : English
Default : No
Forced : No
Menu
00:00:00.000 : en:00:00:00.000
00:06:12.497 : en:00:06:12.497
00:11:12.463 : en:00:11:12.463
00:18:07.295 : en:00:18:07.295
00:23:21.525 : en:00:23:21.525
00:29:04.826 : en:00:29:04.826
00:33:36.723 : en:00:33:36.723
00:38:36.189 : en:00:38:36.189
00:45:15.338 : en:00:45:15.338
00:51:16.407 : en:00:51:16.407
00:56:56.830 : en:00:56:56.830
01:03:24.509 : en:01:03:24.509
01:11:16.814 : en:01:11:16.814
01:18:30.289 : en:01:18:30.289
01:25:23.285 : en:01:25:23.285
01:32:58.323 : en:01:32:58.323

Скриншоты

               
Other forum [Profile] [PM]
Display posts from previous:    
Reply to topic

The time now is: Today 19:10

All times are GMT + 3 Hours



You cannot post new topics in this forum
You cannot reply to topics in this forum
You cannot edit your posts in this forum
You cannot delete your posts in this forum
You cannot vote in polls in this forum
You cannot attach files in this forum
You cannot download files in this forum