Today is a free download without charge Download

(OST) Евангелион / Evangelion (TAKE - RE-TAKE original soundtrack) - 2006 г., FLAC (image+.cue), lossless

Reply to topic
 
Author
Message

Omen ®

Longevity: 9 years

Posts: 181086

Торрент-статистика

Post 28-Dec-2015 18:02

[Quote]

Евангелион / Evangelion
Название альбома: TAKE - RE-TAKE original soundtrack
Композитор: studio kimigabuchi
Год выпуска: 2006 г.
Страна: Япония
Аудио кодек: FLAC (*.flac)
Тип рипа: image+.cue
Битрейт аудио: lossless
Продолжительность: 32:53
Наличие сканов в содержимом раздачи: да
Треклист:
1,Reincarnation [4:35]
2,GIRL [3:50]
3,DOUBLE BIND [4:00]
4,THE LAST ANGEL [3:42]
5,GOD BLESS [3:31]
6,RE-TAKE [3:40]
7,EVER DREAM [3:40]
8,Holy Day [5:48]

Лог создания рипа

Exact Audio Copy V1.1 from 23. June 2015
Отчёт EAC об извлечении, выполненном 24. декабря 2015, 22:14
studio kimigabuchi / 「TAKE」 RE-TAKE original soundtrack
Дисковод: Optiarc DVD RW AD-7580S Adapter: 1 ID: 0
Режим чтения : ДостоверностьИспользование точного потока : ДаОтключение кэша аудио : НетИспользование указателей C2 : Да
Коррекция смещения при чтении : 6Способность читать области Lead-in и Lead-out : НетЗаполнение пропущенных сэмплов тишиной : ДаУдаление блоков с тишиной в начале и конце : НетПри вычислениях CRC использовались нулевые сэмплы : ДаИнтерфейс : Встроенный Win32-интерфейс для Win NT/2000
Выходной формат : Внутренние WAV-операцииФормат сэмплов : 44.100 Гц; 16 бит; стерео
TOC извлечённого CD
Трек | Старт | Длительность | Начальный сектор | Конечный сектор --------------------------------------------------------------------- 1 | 0:00.00 | 4:35.00 | 0 | 20624 2 | 4:35.00 | 3:50.00 | 20625 | 37874 3 | 8:25.00 | 4:00.00 | 37875 | 55874 4 | 12:25.00 | 3:41.38 | 55875 | 72487 5 | 16:06.38 | 3:31.00 | 72488 | 88312 6 | 19:37.38 | 3:40.00 | 88313 | 104812 7 | 23:17.38 | 3:48.00 | 104813 | 121912 8 | 27:05.38 | 5:48.00 | 121913 | 148012 9 | 35:25.38 | 15:32.67 | 159413 | 229379
Характеристики диапазона извлечения и сообщения об ошибках
Выбранный диапазон
Имя файла F:\Rip\「TAKE」 RE-TAKE original soundtrack.wav
Пиковый уровень 100.0 % Скорость извлечения 4.5 X Качество диапазона 99.9 % CRC копии CECBFBEF Копирование... OK
Ошибок не произошло
AccurateRip: сводка
Трек 1 отсутствует в базе данныхТрек 2 отсутствует в базе данныхТрек 3 отсутствует в базе данныхТрек 4 отсутствует в базе данныхТрек 5 отсутствует в базе данныхТрек 6 отсутствует в базе данныхТрек 7 отсутствует в базе данныхТрек 8 отсутствует в базе данных
Ни одного трека нет в базе AccurateRip
Конец отчёта
---- CUETools DB Plugin V2.1.6
[CTDB TOCID: tX4nfkleafwVyp0khdLkItTM8Jg-] foundSubmit result: tX4nfkleafwVyp0khdLkItTM8Jg- has been confirmedTrack | CTDB Status 1 | (3/3) Accurately ripped 2 | (3/3) Accurately ripped 3 | (3/3) Accurately ripped 4 | (3/3) Accurately ripped 5 | (3/3) Accurately ripped 6 | (3/3) Accurately ripped 7 | (3/3) Accurately ripped 8 | (3/3) Accurately ripped
Other forum [Profile] [PM]
Display posts from previous:    
Reply to topic

The time now is: Today 06:03

All times are GMT + 3 Hours



You cannot post new topics in this forum
You cannot reply to topics in this forum
You cannot edit your posts in this forum
You cannot delete your posts in this forum
You cannot vote in polls in this forum
You cannot attach files in this forum
You cannot download files in this forum