Today is a free download without charge Download

Пока не сыграл в ящик / The Bucket List (Роб Райнер / Rob Reiner) [2007, США, комедия, драма, приключения, BDRip 1080p]

Reply to topic
 
Author
Message

Delia ®

Gender:

Longevity: 11 years

Posts: 1821

Торрент-статистика

Post 04-Jul-2012 20:42

[Quote]

Пока не сыграл в ящик / The Bucket List«Оторвись напоследок»--
Год выпуска: 2007
Страна: США
Жанр: драма, комедия, приключения, ...
Продолжительность: 01:37:04
Перевод: Профессиональный (дублированный)
Субтитры: Russian , Russian (colored), Ehglish (SDH) - srt, aas
Режиссер: Роб Райнер
Сценарий: Джастин Закэм
Продюсер: Алан Грейсман, Нил Мерон, Роб Райнер, ...
Оператор: Джон Шварцман
Композитор: Марк Шэймен
Художник: Билл Брзески, Джей Пелиссье, Молли Мэгиннис, ...
Монтаж: Роберт Лейтон- В ролях: Джек Николсон (Jack Nicholson), Морган Фриман (Morgan Freeman), Шон Хейс (Sean Hayes), Беверли Тодд (Beverly Todd), Роб Морроу (Rob Morrow), Альфонсо Фриман (Alfonso Freeman), Роуэна Кинг (Rowena King), Эннтон Берри мл. (Annton Berry Jr.), Верда Бриджес (Verda Bridges), Дестини Браунридж (Destiny Brownridge), Брайан Коуплэнд (Brian Copeland), Йен Энтони Дэйл (Ian Anthony Dale), Дженнифер Дифранческо (Jennifer Defrancisco), Анджела Гарднер (Angela Gardner), Ноэль Гульеми (Noel Gugliemi), Джонатан Эрнандез (Jonathan Hernandez), Хью Б. Холуб (Hugh B. Holub), Андреа Джонсон (Andrea Johnson), Доун Льюис (Dawn Lewis), Джордан Лунд (Jordan Lund)
Описание: Именно так решили два больных раком соседа по больничной палате, когда услышали свой приговор. Один из них вспыльчивый миллиардер, а второй эрудированный автомеханик. Они составляют список дел, которые необходимо сделать прежде, чем они сыграют в ящик, и отправляются в кругосветное путешествие, путешествие всей своей жизни.
Прыжки с парашютом? Посмотрим. Гонки на раритетных автомобилях? Сделано. Посмотреть на пирамиды? Отлично. Открыть радость жизни прежде, чем станет слишком поздно? Точно!
-Рейтинг MPAA: -- --Качество: BDRip1080р
Формат: MKV
Видео кодек: H.264 (AVC)
Аудио кодеk: AC3
Видео: 1920x1080 (16:9), 23.976 fps, AVC, 6 063 Kbps
Аудио: AC3, 384 Kbps, 48.0 KHz, 6 ch

МедиаИнфо

Код:
General
Complete name                    : The Bucket List(2007)BDRip-F.H.D.mkv
Format                           : Matroska
File size                        : 4.37 GiB
Duration                         : 1h 37mn
Overall bit rate                 : 6 438 Kbps
Encoded date                     : UTC 2012-07-04 16:47:58
Writing application              : mkvmerge v5.6.0 ('Kenya Kane') built on May 27 2012 16:44:04
Writing library                  : libebml v1.2.3 + libmatroska v1.3.0
Video
ID                               : 1
Format                           : AVC
Format/Info                      : Advanced Video Codec
Format profile                   : [email protected]
Format settings, CABAC           : Yes
Format settings, ReFrames        : 4 frames
Muxing mode                      : Container [email protected]
Codec ID                         : V_MPEG4/ISO/AVC
Duration                         : 1h 37mn
Bit rate                         : 6 063 Kbps
Width                            : 1 920 pixels
Height                           : 1 080 pixels
Display aspect ratio             : 16:9
Frame rate                       : 23.976 fps
Color space                      : YUV
Chroma subsampling               : 4:2:0
Bit depth                        : 8 bits
Scan type                        : Progressive
Bits/(Pixel*Frame)               : 0.122
Stream size                      : 4.02 GiB (92%)
Writing library                  : x264 core 125 r2200 999b753
Encoding settings                : cabac=1 / ref=4 / deblock=1:-2:-1 / analyse=0x3:0x113 / me=umh / subme=10 / psy=1 / psy_rd=0.90:0.15 / mixed_ref=1 / me_range=48 / chroma_me=1 / trellis=2 / 8x8dct=1 / cqm=0 / deadzone=21,11 / fast_pskip=0 / chroma_qp_offset=-1 / threads=6 / lookahead_threads=1 / sliced_threads=0 / nr=0 / decimate=1 / interlaced=0 / bluray_compat=0 / constrained_intra=0 / bframes=7 / b_pyramid=2 / b_adapt=2 / b_bias=0 / direct=3 / weightb=1 / open_gop=0 / weightp=2 / keyint=240 / keyint_min=23 / scenecut=40 / intra_refresh=0 / rc=2pass / mbtree=0 / bitrate=6063 / ratetol=1.0 / qcomp=0.70 / qpmin=0 / qpmax=69 / qpstep=4 / cplxblur=20.0 / qblur=0.5 / ip_ratio=1.40 / pb_ratio=1.30 / aq=2:0.90
Color primaries                  : BT.709-5, BT.1361, IEC 61966-2-4, SMPTE RP177
Transfer characteristics         : BT.709-5, BT.1361
Matrix coefficients              : BT.709-5, BT.1361, IEC 61966-2-4 709, SMPTE RP177
Audio
ID                               : 2
Format                           : AC-3
Format/Info                      : Audio Coding 3
Mode extension                   : CM (complete main)
Codec ID                         : A_AC3
Duration                         : 1h 37mn
Bit rate mode                    : Constant
Bit rate                         : 384 Kbps
Channel(s)                       : 6 channels
Channel positions                : Front: L C R, Side: L R, LFE
Sampling rate                    : 48.0 KHz
Bit depth                        : 16 bits
Stream size                      : 267 MiB (6%)
Language                         : Russian
Text #1
ID                               : 3
Format                           : UTF-8
Codec ID                         : S_TEXT/UTF8
Codec ID/Info                    : UTF-8 Plain Text
Language                         : Russian
Text #2
ID                               : 4
Format                           : ASS
Codec ID                         : S_TEXT/ASS
Codec ID/Info                    : Advanced Sub Station Alpha
Title                            : (colored)
Language                         : Russian
Text #3
ID                               : 5
Format                           : UTF-8
Codec ID                         : S_TEXT/UTF8
Codec ID/Info                    : UTF-8 Plain Text

Знаете ли Вы, что...

» Джастин Захэм написал сценарий всего за две недели.
» Специально для своих ролей Джэк Николсон и Морган Фриман подстриглись «под ноль».
» С самого начала и режиссер Роб Райнер и актер Морган Фриман видели в роли Эдварда Коула только Джэка Николсона.
» «Больничный» опыт Джэка Николсона послужил основой для написания некоторых диалогов и сцен фильма. К примеру, в сценарии не были упомянуты зеркальные очки. На съемки их принес сам Николсон, прихватив их из больницы, в которой он проходил лечение. Робу Райнеру понравилась идея добавить такую деталь в свой фильм.
» Джастин Захэм прописывал роль Картера специально для Моргана Фримана.
» В некоторые кинотеатры копии с фильмом доставлялись под фальшивым названием «Дороги в рай».
» Роль сына персонажа Моргана Фримана играет его родной сын Альфонсо Фриман.
» «Копи Лувак» (другое название – «Кофе виверры») в самом деле, самый дорогой кофе в мире. Его стоимость колеблется от $120 до $600. Его производство очень медленное, так как плоды кофе должны пройти через пищеварительную систему китайских диких котов виверр.
» На 21 минуте фильма герой Моргана Фримана одевает очки для зрения, но уже в следующем кадре очков на его лице нет.


Скриншоты

     
     

_________________
Человек – это канат, натянутый между животным и сверхчеловеком, – канат над пропастью.
В человеке ценно то, что он мост, а не цель. Фридрих Ницше
Other forum [Profile] [PM]
Display posts from previous:    
Reply to topic

The time now is: Today 04:15

All times are GMT + 3 Hours



You cannot post new topics in this forum
You cannot reply to topics in this forum
You cannot edit your posts in this forum
You cannot delete your posts in this forum
You cannot vote in polls in this forum
You cannot attach files in this forum
You cannot download files in this forum