Today is a free download without charge Download

Гномы видят всё... / Päkapikud piiluvad... (Хейно Парс / Heino Pars) [1990, Эстония, мультфильм, VHSRip]

Reply to topic
 
Author
Message

Omen ®

Longevity: 7 years 11 months

Posts: 181087

Торрент-статистика

Post 26-Dec-2015 15:01

[Quote]

Гномы видят всё... / Päkapikud piiluvad...
Страна: СССР (Эстонская республика)
Жанр: мультфильм
Продолжительность: 00:14:44
Год выпуска: 1990
Перевод: не требуется
Русские субтитры: нет
Режиссёр: Хейно Парс / Heino Pars
Описание: Наступает зима, и гномы - помощники Санты принимаются за работу: разбирают почту, упаковывают подарки. Ещё они пробираются в дома к людям и видят всё: кто из детей хорошо себя ведёт, а кто капризничает. А если ребёнок заболел, могут предложить волшебное лекарство.
Качество: VHSRip
Формат: AVI
Видео: 1793 kbps, 704х528 (4:3), 25.000 fps, MPEG-4 Visual (XviD)
Аудио: 128 kbps, 48.0 kHz, 2 channels, MPEG Audio (MP3)
Субтитры: отсутствуют

Подробные технические данные

GeneralComplete name : Päkapikud piiluvad (1990).aviFormat : AVIFormat/Info : Audio Video InterleaveFile size : 204 MiBDuration : 14mn 44sOverall bit rate : 1 931 KbpsWriting application : VirtualDubMod 1.5.4.1 (build 2178/release)Writing library : VirtualDub build 35491/release
VideoID : 0Format : MPEG-4 VisualFormat profile : Advanced [email protected] settings, BVOP : 2Format settings, QPel : NoFormat settings, GMC : No warppointsFormat settings, Matrix : Default (H.263)Codec ID : XVIDCodec ID/Hint : XviDDuration : 14mn 44sBit rate : 1 793 KbpsWidth : 704 pixelsHeight : 528 pixelsDisplay aspect ratio : 4:3Frame rate : 25.000 fpsColor space : YUVChroma subsampling : 4:2:0Bit depth : 8 bitsScan type : ProgressiveCompression mode : LossyBits/(Pixel*Frame) : 0.193Stream size : 189 MiB (93%)Writing library : XviD 64
AudioID : 1Format : MPEG AudioFormat version : Version 1Format profile : Layer 3Mode : Joint stereoMode extension : MS StereoCodec ID : 55Codec ID/Hint : MP3Duration : 14mn 44sBit rate mode : ConstantBit rate : 128 KbpsChannel(s) : 2 channelsSampling rate : 48.0 KHzCompression mode : LossyStream size : 13.5 MiB (7%)Alignment : Aligned on interleavesInterleave, duration : 40 ms (1.00 video frame)Interleave, preload duration : 504 ms

Скриншоты

Other forum [Profile] [PM]
Display posts from previous:    
Reply to topic

The time now is: Today 15:44

All times are GMT + 3 Hours



You cannot post new topics in this forum
You cannot reply to topics in this forum
You cannot edit your posts in this forum
You cannot delete your posts in this forum
You cannot vote in polls in this forum
You cannot attach files in this forum
You cannot download files in this forum