Today is a free download without charge Download

Как меня зовут (Нигина Сайфуллаева) [2014, Россия, драма, WEB-DL 1080p] + Original Rus

Reply to topic
 
Author
Message

Omen ®

Longevity: 8 years 10 months

Posts: 181086

Торрент-статистика

Post 26-Dec-2015 09:06

[Quote]

Как меня зовут
Страна: Россия
Студия: Профит
Жанр: драма
Год выпуска: 2014
Продолжительность: 01:26:54
Перевод: Не требуется
Cубтитры: нет
Оригинальная аудиодорожка: русский
Режиссер: Нигина Сайфуллаева
В ролях: Константин Лавроненко, Александра Бортич, Марина Васильева, Кирилл Каганович, Анна Котова, Андрей Фомин, Сергей Щербанов, Дмитрий Верста, Сергей Пальчаковский, Нателла Абелева-Таганова
Описание: 17-летние москвички Оля и Саша отправляются в Крым, чтобы познакомиться с Олиным отцом Сергеем. Сергей всю жизнь прожил в маленьком приморском поселке и никогда не видел свою единственную дочь. На пороге его дома Оля пугается предстоящей встречи и просит Сашу «поменяться местами». Саша представляется Олей, то есть дочерью, а Оля выдает себя за ее подружку. Поначалу этот розыгрыш забавляет девчонок, но они не подозревают, что невинная шутка обернётся драмой и перевернет жизнь всех ее участников.

Sample
Тип релиза: WEB-DL 1080p
Контейнер: MKV
Видео: MPEG4 AVC Video, H264, 16:9, 1920x810, 25 fps, 4360 kbps
Аудио: Russian (AC3 6 ch, 384 kbps, 16 bits, 48.0 KHz) - оригинал

MediaInfo

General
Unique ID : 178453178831538202162041709118288133396 (0x8640D50314F2C2F3865DF9D664FD7D14)
Complete name : E:\Как меня зовут 2014 WEB-DL 1080p.mkv
Format : Matroska
Format version : Version 2
File size : 2.94 GiB
Duration : 1h 26mn
Overall bit rate : 4 840 Kbps
Encoded date : UTC 2015-02-13 04:31:08
Writing application : mkvmerge v7.4.0 ('Circles') 64bit built on Dec 12 2014 12:19:56
Writing library : libebml v1.3.0 + libmatroska v1.4.1
DURATION : 01:26:54.176000000
NUMBER_OF_FRAMES : 162943
NUMBER_OF_BYTES : 250280448
_STATISTICS_WRITING_APP : mkvmerge v7.4.0 ('Circles') 64bit built on Dec 12 2014 12:19:56
_STATISTICS_WRITING_DATE_UTC : 2015-02-13 04:31:08
_STATISTICS_TAGS : BPS DURATION NUMBER_OF_FRAMES NUMBER_OF_BYTES
Video
ID : 1
Format : AVC
Format/Info : Advanced Video Codec
Format profile : [email protected]
Format settings, CABAC : Yes
Format settings, ReFrames : 5 frames
Codec ID : V_MPEG4/ISO/AVC
Duration : 1h 26mn
Bit rate : 4 360 Kbps
Width : 1 920 pixels
Height : 810 pixels
Display aspect ratio : 2.40:1
Frame rate mode : Constant
Frame rate : 25.000 fps
Color space : YUV
Chroma subsampling : 4:2:0
Bit depth : 8 bits
Scan type : Progressive
Bits/(Pixel*Frame) : 0.112
Stream size : 2.65 GiB (90%)
Language : English
Default : Yes
Forced : No
Color primaries : BT.709
Transfer characteristics : BT.709
Matrix coefficients : BT.709
Audio
ID : 2
Format : AC-3
Format/Info : Audio Coding 3
Mode extension : CM (complete main)
Format settings, Endianness : Big
Codec ID : A_AC3
Duration : 1h 26mn
Bit rate mode : Constant
Bit rate : 384 Kbps
Channel count : 6 channels
Channel positions : Front: L C R, Side: L R, LFE
Sampling rate : 48.0 KHz
Bit depth : 16 bits
Compression mode : Lossy
Stream size : 239 MiB (8%)
Language : Russian
Default : Yes
Forced : No
Menu
00:00:00.000 : en:Глава 1
00:05:32.000 : en:Глава 2
00:10:51.000 : en:Глава 3
00:15:59.000 : en:Глава 4
00:20:41.000 : en:Глава 5
00:25:38.000 : en:Глава 6
00:30:40.000 : en:Глава 7
00:35:44.000 : en:Глава 8
00:41:15.000 : en:Глава 9
00:46:50.000 : en:Глава 10
00:52:29.000 : en:Глава 11
00:58:06.000 : en:Глава 12
01:03:42.000 : en:Глава 13
01:08:40.000 : en:Глава 14
01:14:08.000 : en:Глава 15
01:19:12.000 : en:Глава 16
01:23:21.000 : en:Глава 17

Скриншоты

Other forum [Profile] [PM]
Display posts from previous:    
Reply to topic

The time now is: Today 14:30

All times are GMT + 3 Hours



You cannot post new topics in this forum
You cannot reply to topics in this forum
You cannot edit your posts in this forum
You cannot delete your posts in this forum
You cannot vote in polls in this forum
You cannot attach files in this forum
You cannot download files in this forum