Today is a free download without charge Download

Иерей-сан. Исповедь самурая (Егор Баранов) [2015 г., боевик, драма, WEB-DL 720p] [iTunes]

Reply to topic
 
Author
Message

Russian Mafia ®

Gender:

Longevity: 6 years 5 months

Posts: 337

Торрент-статистика

Post 26-Dec-2015 08:50

[Quote]

Иерей-сан. Исповедь самурая
Год выпуска: 2015
Страна: Россия
Жанр: боевик, драма
Продолжительность: 01:41:51
Перевод: Оригинальное [iTunes]
Режиссер: Егор Баранов

В ролях: Кэри-Хироюки Тагава, Пётр Фёдоров, Иван Охлобыстин, Игорь Жижикин, Петр Мамонов, Дарья Екамасова, Любовь Толкалина, Людмила Чурсина, Надежда Маркина, Алина Бабак
Описание: Главный герой — Такуро Накамура, в крещении отец Николай — священник японской православной церкви, в прошлом профессиональный спортсмен, а в настоящем — родной брат главы одного из влиятельных кланов якудза. Однажды он не смог пройти мимо насилия и защитил обычную девушку, вступив в схватку с людьми из враждебной брату группировки. Война кланов якудза неизбежна. Став заложником криминальных «разборок», священник подвергается смертельной опасности и его отправляют служить в российское село Глубокое, раздираемое внутренними конфликтами. Это место крайне интересно Андрею Нелюбину для земельных махинаций, и он готов пойти на все, чтобы жители покинули родные земли. Отец Николай объединяет сельчан вокруг полуразрушенной церкви. Восстанавливая храм, они возродили мир между собой и приняли вызов. Началась уже совсем другая война…
Качество: WEB-DL 720p
Формат: MKV
Видео: MPEG-4 AVC, 4007 kb/s, 1280x536, 24.000 fps
Аудио: AC3, 384 kb/s (6 ch), 48.0 KHz

MI

Format : Matroska
Format version : Version 4 / Version 2
File size : 3.19 GiB
Duration : 1h 41mn
Overall bit rate : 4 480 Kbps
Encoded date : UTC 2015-12-25 19:17:58
Writing application : mkvmerge v8.3.0 ('Over the Horizon') 64bit
Writing library : libebml v1.3.1 + libmatroska v1.4.2
Video
ID : 1
Format : AVC
Format/Info : Advanced Video Codec
Format profile : [email protected]
Format settings, CABAC : No
Format settings, ReFrames : 2 frames
Codec ID : V_MPEG4/ISO/AVC
Duration : 1h 41mn
Bit rate : 4 007 Kbps
Width : 1 280 pixels
Height : 536 pixels
Display aspect ratio : 2.40:1
Frame rate mode : Constant
Frame rate : 24.000 fps
Color space : YUV
Chroma subsampling : 4:2:0
Bit depth : 8 bits
Scan type : Progressive
Bits/(Pixel*Frame) : 0.243
Stream size : 2.85 GiB (89%)
Language : English
Default : Yes
Forced : No
Color range : Limited
Color primaries : BT.709
Transfer characteristics : BT.709
Matrix coefficients : BT.709
Audio
ID : 2
Format : AC-3
Format/Info : Audio Coding 3
Mode extension : CM (complete main)
Format settings, Endianness : Big
Codec ID : A_AC3
Duration : 1h 41mn
Bit rate mode : Constant
Bit rate : 384 Kbps
Channel(s) : 6 channels
Channel positions : Front: L C R, Side: L R, LFE
Sampling rate : 48.0 KHz
Bit depth : 16 bits
Compression mode : Lossy
Stream size : 280 MiB (9%)
Language : Russian
Default : Yes
Forced : No
Menu
00:00:00.000 : en:Глава 1
00:05:58.000 : en:Глава 2
00:12:53.000 : en:Глава 3
00:19:32.000 : en:Глава 4
00:26:28.000 : en:Глава 5
00:31:49.000 : en:Глава 6
00:37:29.000 : en:Глава 7
00:42:49.000 : en:Глава 8
00:48:45.000 : en:Глава 9
00:55:29.000 : en:Глава 10
01:02:03.000 : en:Глава 11
01:08:00.000 : en:Глава 12
01:13:05.000 : en:Глава 13
01:18:23.000 : en:Глава 14
01:24:40.000 : en:Глава 15
01:30:59.000 : en:Глава 16
01:36:16.000 : en:Глава 17

Скриншоты

       
Other forum [Profile] [PM]

Dracula

Longevity: 7 years 11 months

Posts: 11008

Торрент-статистика

Post 26-Dec-2015 09:12 (after 21 minute)

Топик был перенесен из форума Новинки (HD|DVD|BD|WEB|TV|SAT|PDTV|-Rip) в форум Наше кино


Геннадич
 
Display posts from previous:    
Reply to topic

The time now is: Today 12:38

All times are GMT + 3 Hours



You cannot post new topics in this forum
You cannot reply to topics in this forum
You cannot edit your posts in this forum
You cannot delete your posts in this forum
You cannot vote in polls in this forum
You cannot attach files in this forum
You cannot download files in this forum