Today is a free download without charge Download

Запретная зона / Chernobyl Diaries (Брэдли Паркер) [2012 г., ужасы, DVD5] R5

Reply to topic
 
Author
Message

BoxeR ®

Gender:

Longevity: 9 years

Posts: 423

Торрент-статистика

Post 04-Jul-2012 09:36

[Quote]

-Chernobyl Diaries--
  • Год выхода: 2012
  • Страна: США / Alcon Entertainment, FilmNation Entertainment
  • Жанр: ужасы
  • Продолжительность: 01:24:25
  • Перевод: Дублированный [лицензия]
  • Субтитры: Отсутствуют
-
  • Режиссёр:
    Брэдли Паркер
-
  • В ролях:
    Ингрид Болсай Бердал, Дмитрий Дьяченко, Оливия Дадли, Девин Келли, Джесси МакКартни, Натан Филлипс, Джонатан Садовский, Милош Тимотиевич, Милутин Милошевич, Иван Джорджевич
-
  • Описание:
    Шестеро молодых туристов-экстремалов прибыли на каникулы в Украину. Узнав о том, что в Зону отчуждения устраиваются экскурсии, они нанимают гида и отправляются за незабываемыми впечатлениями. И таковые не заставляют их долго ждать. Казалось, радиоактивный город пуст и заброшен. Там не осталось ничего живого. Но как только солнце прячется за горизонт, Припять оживает. Нечеловеческие крики сотрясают ночной воздух. Незадачливых путешественников охватывают ужас и паника. Они понимают, что не одни в этом мёртвом городе.
-
  • Качество: DVD5 R5
  • Формат: DVD Video
  • Видео кодек: MPEG2
  • Аудио кодек: AC3
  • Видео: 720x576 (16:9), 25.000 fps, 7 443 Kbps (0.718 bit/pixel)
  • Аудио: 48 kHz, AC3 Dolby Digital, 3/2 (L,C,R,l,r) + LFE ch, ~384 kbps
-

Скриншоты

     

Скриншоты меню

     

DVDinfo

Title:
Size: 3.90 Gb ( 4 092 606 KBytes ) - DVD-5
Enabled regions: 1, 2, 3, 4, 5, 6, 7, 8
VTS_01 :
Play Length: 01:24:25
Video: PAL 16:9 (720x576) VBR, Auto Pan&Scan
Audio:
Russian (Dolby AC3, 6 ch)
VTS_02 :
Play Length: 00:00:05
Video: PAL 16:9 (720x576) VBR, Auto Pan&Scan
VTS_03 :
Play Length: 00:00:08
Video: PAL 4:3 (720x576) VBR
VTS_04 :
Play Length: 00:00:30
Video: PAL 4:3 (720x576) VBR
Audio:
English (Dolby AC3, 2 ch)
Menu Video:
NTSC 4:3 (720x480) VBR
Auto Pan&Scan, Auto Letterboxed
Menu Russian Language Unit :
Root Menu
Chapter (PTT) Menu

MediaInfo

Format : MPEG-PS
File size : 1 024 MiB
Duration : 17mn 55s
Overall bit rate mode : Variable
Overall bit rate : 7 986 Kbps
Video
ID : 224 (0xE0)
Format : MPEG Video
Format version : Version 2
Format profile : [email protected]
Format settings, BVOP : Yes
Format settings, Matrix : Custom
Duration : 17mn 55s
Bit rate mode : Variable
Bit rate : 7 443 Kbps
Maximum bit rate : 8 000 Kbps
Width : 720 pixels
Height : 576 pixels
Display aspect ratio : 16:9
Frame rate : 25.000 fps
Standard : PAL
Color space : YUV
Chroma subsampling : 4:2:0
Bit depth : 8 bits
Scan type : Interlaced
Scan order : Top Field First
Compression mode : Lossy
Bits/(Pixel*Frame) : 0.718
Stream size : 954 MiB (93%)
Audio
ID : 189 (0xBD)-128 (0x80)
Format : AC-3
Format/Info : Audio Coding 3
Mode extension : CM (complete main)
Format settings, Endianness : Big
Muxing mode : DVD-Video
Duration : 17mn 55s
Bit rate mode : Constant
Bit rate : 384 Kbps
Channel(s) : 6 channels
Channel positions : Front: L C R, Side: L R, LFE
Sampling rate : 48.0 KHz
Bit depth : 16 bits
Compression mode : Lossy
Stream size : 49.2 MiB (5%)
Other forum [Profile] [PM]
Display posts from previous:    
Reply to topic

The time now is: Today 04:41

All times are GMT + 3 Hours



You cannot post new topics in this forum
You cannot reply to topics in this forum
You cannot edit your posts in this forum
You cannot delete your posts in this forum
You cannot vote in polls in this forum
You cannot attach files in this forum
You cannot download files in this forum