Today is a free download without charge Download

Коммунальная история (Алексей Шелманов) [1993, СССР, Союзмультфильм, Мультфильм, DVB]

Reply to topic
 
Author
Message

Omen ®

Longevity: 7 years 11 months

Posts: 181087

Торрент-статистика

Post 18-Dec-2015 12:00

[Quote]

Коммунальная история
Страна: СССР, Союзмультфильм
Жанр: Мультфильм
Продолжительность: 00:07:47
Год выпуска: 1993
Перевод: Не требуется
Русские субтитры: нет
Режиссёр: Алексей Шелманов
Роли озвучивали: Борис Новиков
Описание: Приключения сантехника Вовы в коммунальной квартире, населенной персонажами разных эпох.

Я на :
Качество: DVB
Формат: MPEG-TS
Видео: MPEG Video, 3497 kbps, 704 x 576 (1.333), 25 fps
Аудио: MPEG Audio, 160 kbps, 2 ch, 48 kHz
Субтитры: Отсутствуют

Подробные технические данные

ОбщееИдентификатор : 1 (0x1)Полное имя : D:\00-Коммунальная история\Коммунальная история 1993.tsФормат : MPEG-TSРазмер файла : 215 МбайтПродолжительность : 7 м. 47 с.Режим общего битрейта : ПеременныйОбщий поток : 3849 Кбит/сек
ВидеоИдентификатор : 1310 (0x51E)Идентификатор меню : 310 (0x136)Формат : MPEG VideoВерсия формата : Version 2Профиль формата : [email protected]Параметр BVOP формата : ДаПараметр матрицы формата : ВыборочнаяПараметр GOP формата : VariableСтруктура изображения : FrameИдентификатор кодека : 2Продолжительность : 7 м. 47 с.Вид битрейта : ПеременныйБитрейт : 3497 Кбит/секМаксимальный битрейт : 15,0 Мбит/секШирина : 704 пикселяВысота : 576 пикселейСоотношение сторон : 4:3Частота кадров : 25,000 кадров/секСтандарт вещания : PALЦветовое пространство : YUVСубдискретизация насыщенности : 4:2:0Битовая глубина : 8 битТип развёртки : ЧересстрочнаяПорядок развёртки : Верхнее поле первоеМетод сжатия : С потерямиБит/(Пиксели*Кадры) : 0.345Временной код первого кадра : 00:00:00:00Оригинал временного кода : Group of pictures headerGOP, открыто/закрыто : ОткрытоGOP, открыто/закрыто на первом кадре : ЗакрытоРазмер потока : 195 Мбайт (91%)
АудиоИдентификатор : 2310 (0x906)Идентификатор меню : 310 (0x136)Формат : MPEG AudioВерсия формата : Version 1Профиль формата : Layer 2Идентификатор кодека : 3Продолжительность : 7 м. 47 с.Вид битрейта : ПостоянныйБитрейт : 160 Кбит/секКаналы : 2 каналаЧастота : 48,0 КГцМетод сжатия : С потерямиЗадержка видео : 3 мс.Размер потока : 8,92 Мбайт (4%)Язык : Russian

Скриншоты

[/url]
Other forum [Profile] [PM]
Similar theme
Forum Topic Author Torrent Replies Last Post
./templates/default/images/folder_dl.gif Обучающее видео [Advanced Training] Курс Cisco SWITCH 2.0 - Коммутация в сетях Cisco (Implementing Cisco IP Switched Networks) [2014, RUS] Omen
1 | 0

0 | 4609

523

2015-05-15 21:00
Omen Latest
./templates/default/images/folder_dl.gif Комиксы, Графика, Wallpapers, Арт Смикиклас М. - Инфографика. Коммуникация и влияние при помощи изображений [2014, PDF, RUS] Omen
1 | 0

0 | 3420

0

2016-11-20 01:00
Omen Latest
Display posts from previous:    
Reply to topic

The time now is: Today 18:27

All times are GMT + 3 Hours



You cannot post new topics in this forum
You cannot reply to topics in this forum
You cannot edit your posts in this forum
You cannot delete your posts in this forum
You cannot vote in polls in this forum
You cannot attach files in this forum
You cannot download files in this forum