Today is a free download without charge Download

Мультипликационный крокодил №1 (В. Пекарь, В. Попов, Л. Позднеев) [1960, СССР, Союзмультфильм, Мультфильм, DVB]

Reply to topic
 
Author
Message

Omen ®

Longevity: 7 years 11 months

Posts: 181087

Торрент-статистика

Post 16-Dec-2015 15:00

[Quote]

Мультипликационный крокодил №1
Страна: СССР, Союзмультфильм
Жанр: Мультфильм
Продолжительность: 00:09:44
Год выпуска: 1960
Перевод: Не требуется
Русские субтитры: нет
Режиссёр: В. Пекарь, В. Попов, Л. Позднеев
Роли озвучивали: Иван Любезнов, Лев Потемкин, Е. Семенкина, М. Докторова, А. Бухарцева
Описание: Сатирический мультжурнал для взрослых.
Качество: DVB
Формат: MPEG-TS
Видео: MPEG Video, 3076 kbps, 704 x 576 (1.333), 25 kbps
Аудио: MPEG Audio, 160 kbps, 2 ch, 48 kHz
Субтитры: Отсутствуют

Подробные технические данные

ОбщееИдентификатор : 1 (0x1)Полное имя : D:\00-МУК-01\МУК-01.tsФормат : MPEG-TSРазмер файла : 237 МбайтПродолжительность : 9 м. 44 с.Режим общего битрейта : ПеременныйОбщий поток : 3406 Кбит/сек
ВидеоИдентификатор : 1310 (0x51E)Идентификатор меню : 310 (0x136)Формат : MPEG VideoВерсия формата : Version 2Профиль формата : [email protected]Параметр BVOP формата : ДаПараметр матрицы формата : ВыборочнаяПараметр GOP формата : VariableСтруктура изображения : FrameИдентификатор кодека : 2Продолжительность : 9 м. 44 с.Вид битрейта : ПеременныйБитрейт : 3076 Кбит/секМаксимальный битрейт : 15,0 Мбит/секШирина : 704 пикселяВысота : 576 пикселейСоотношение сторон : 4:3Частота кадров : 25,000 кадров/секСтандарт вещания : PALЦветовое пространство : YUVСубдискретизация насыщенности : 4:2:0Битовая глубина : 8 битТип развёртки : ЧересстрочнаяПорядок развёртки : Верхнее поле первоеМетод сжатия : С потерямиБит/(Пиксели*Кадры) : 0.303Временной код первого кадра : 00:00:00:00Оригинал временного кода : Group of pictures headerGOP, открыто/закрыто : ОткрытоGOP, открыто/закрыто на первом кадре : ЗакрытоРазмер потока : 214 Мбайт (90%)
АудиоИдентификатор : 2310 (0x906)Идентификатор меню : 310 (0x136)Формат : MPEG AudioВерсия формата : Version 1Профиль формата : Layer 2Идентификатор кодека : 3Продолжительность : 9 м. 44 с.Вид битрейта : ПостоянныйБитрейт : 160 Кбит/секКаналы : 2 каналаЧастота : 48,0 КГцМетод сжатия : С потерямиЗадержка видео : 3 мс.Размер потока : 11,1 Мбайт (5%)Язык : Russian

Скриншоты

Other forum [Profile] [PM]
Similar theme
Forum Topic Author Torrent Replies Last Post
./templates/default/images/folder_dl.gif Справочники, энциклопедии и словари Meilute Ramoniene & Loreta Vilkiene - Мультимедийный курс литовского языка для начинающих "Рo truputį" [2001] Koralina
1 | 0

0 | 1636

5

2011-12-14 11:48
Koralina Latest
./templates/default/images/folder_dl.gif Комиксы, Графика, Wallpapers, Арт Харт К. - Как нарисовать все, что вы узнали о мультяшках [2001, PDF, RUS] Omen
1 | 0

0 | 731

1

2016-11-08 01:00
Omen Latest
./templates/default/images/folder_dl.gif Фильмы 2011-2020 Фиксики против кработов (Василий Бедошвили, Олег Ужинов, Иван Пшонкин) [2019 г., приключения, музыка, мультфильм, WEB-DLRip] kilmister777
1 | 0

0 | 679

3

2020-02-05 13:57
kilmister777 Latest
Display posts from previous:    
Reply to topic

The time now is: Today 04:22

All times are GMT + 3 Hours



You cannot post new topics in this forum
You cannot reply to topics in this forum
You cannot edit your posts in this forum
You cannot delete your posts in this forum
You cannot vote in polls in this forum
You cannot attach files in this forum
You cannot download files in this forum