Today is a free download without charge Download

Женщина в черном / The Woman in Black (2012) [1080p] BDRemux

Reply to topic
 
Author
Message

KirovSOFT ®

Gender:

Longevity: 9 years

Posts: 998

Location: Кировская область -Оричи

Торрент-статистика

Post 30-Jun-2012 22:08

[Quote]

Женщина в черном / The Woman in Black (2012) BDRemux-
Русское название: Женщина в черном
Оригинальное название: The Woman in Black
Год выпуска: 2012
Жанр: Ужасы, Триллер, Драма
Описание фильма:
На дворе — конец девятнадцатого века, но, хотя люди пользуются автомобилями, железными дорогами и телеграфом, человек по-прежнему бессилен перед проявлениями сверхъестественного. Молодой лондонский юрист Артур Киппс вынужден оставить своего 4-летнего сына и отправиться в командировку в уединенную северную деревушку, чтобы составить реестр документов, оставшихся от скончавшегося хозяина поместья Ил Марш. Добравшись до места и пообщавшись с негостеприимными местными жителями, он начинает понимать, что над деревушкой нависла тень мрачной тайны. Когда же рядом со старым кладбищем ему на глаза попадается загадочная женщина, одетая в черное, это малозначительное происшествие знаменует начало череды леденящих кровь смертей в семьях обитателей деревни.
Режиссер: Джеймс Уоткинс
Актеры: Дэниэл Рэдклифф, Кьяран Хайндс, Джанет МакТир, Дэвид Бурк, Шон Дули, Эмма Шори, Хэрмон Молли, Софи Стаки, Миша Хэндли, Джессика Рэйне
Продолжительность: 01:35:19
Перевод: Дублированный
Субтитры: Русские, Английские

Дата мировой премьеры: 02.02.2012
Дата российской премьеры: 15.03.2012
Дата выхода DVD релиза: 02.07.2012
Видеокодек: MPEG-4 AVC/H.264
Битрейт видео: ~23.2 Mb/s
Размер кадра: 1920 x 1080
Качество видео: BDRemux
Аудиокодек: DTS, DTS-HD MA
Аудио:
1: DTS, 1510 kbps, 48 kHz, 24-bit, 6 ch - Русский (дублированный)
2: DTS-HD MA, 1561/1510 kbps, 48 kHz, 16-bit, 6 ch - English-

MediaInfo

Общее
Уникальный идентификатор : 250524994025930682697361561217552614791 (0xBC795BD915A4F0E08F635922E04C0587)
Полное имя : The.Woman.in.Black.2012.BDRemux.1080p.mkv
Формат : Matroska
Версия формата : Version 2
Размер файла : 17,8 Гбайт
Продолжительность : 1 ч. 35 м.
Режим общего битрейта : Переменный
Общий поток : 26,8 Мбит/сек
Дата кодирования : UTC 2012-06-27 20:44:32
Программа кодирования : mkvmerge v5.6.0 ('Kenya Kane') built on May 27 2012 16:44:04
Библиотека кодирования : libebml v1.2.3 + libmatroska v1.3.0
Видео
Идентификатор : 1
Формат : AVC
Формат/Информация : Advanced Video Codec
Профиль формата : [url=mailto:[email protected]][email protected][/url]
Параметр CABAC формата : Да
Параметр ReFrames формата : 2 кадра
Идентификатор кодека : V_MPEG4/ISO/AVC
Продолжительность : 1 ч. 35 м.
Вид битрейта : Переменный
Битрейт : 23,2 Мбит/сек
Ширина : 1920 пикселей
Высота : 1080 пикселей
Соотношение сторон : 16:9
Частота кадров : 23,976 кадра/сек
Цветовое пространство : YUV
Субдискретизация насыщенности : 4:2:0
Битовая глубина : 8 бит
Тип развёртки : Прогрессивная
Бит/(Пиксели*Кадры) : 0.466
Размер потока : 15,4 Гбайт (87%)
Язык : English
Default : Нет
Forced : Нет
Аудио #1
Идентификатор : 2
Формат : DTS
Формат/Информация : Digital Theater Systems
Идентификатор кодека : A_DTS
Продолжительность : 1 ч. 35 м.
Вид битрейта : Постоянный
Битрейт : 1510 Кбит/сек
Каналы : 6 каналов
Расположение каналов : Front: L C R, Side: L R, LFE
Частота : 48,0 КГц
Битовая глубина : 24 бит
Метод сжатия : С потерями
Размер потока : 1,01 Гбайт (6%)
Язык : Russian
Default : Да
Forced : Нет
Аудио #2
Идентификатор : 3
Формат : DTS
Формат/Информация : Digital Theater Systems
Профиль формата : MA / Core
Идентификатор кодека : A_DTS
Продолжительность : 1 ч. 35 м.
Вид битрейта : Переменный
Битрейт : 1561 Кбит/сек / 1510 Кбит/сек
Каналы : 6 каналов
Расположение каналов : Front: L C R, Side: L R, LFE
Частота : 48,0 КГц
Битовая глубина : 16 бит
Метод сжатия : Без потерь / Lossy
Язык : English
Default : Нет
Forced : Нет
Текст #1
Идентификатор : 4
Формат : UTF-8
Идентификатор кодека : S_TEXT/UTF8
Идентификатор кодека/Информация : UTF-8 Plain Text
Язык : Russian
Default : Нет
Forced : Нет
Текст #2
Идентификатор : 5
Формат : UTF-8
Идентификатор кодека : S_TEXT/UTF8
Идентификатор кодека/Информация : UTF-8 Plain Text
Язык : English
Default : Нет
Forced : Нет
Меню
00:00:00.000 : en:00:00:00.000
00:06:54.414 : en:00:06:54.414
00:12:54.190 : en:00:12:54.190
00:17:36.764 : en:00:17:36.764
00:26:21.121 : en:00:26:21.121
00:30:03.343 : en:00:30:03.343
00:36:10.502 : en:00:36:10.502
00:39:58.438 : en:00:39:58.438
00:45:48.663 : en:00:45:48.663
00:51:59.325 : en:00:51:59.325
00:58:02.354 : en:00:58:02.354
01:03:31.771 : en:01:03:25.6771
01:08:43.369 : en:01:08:43.369
01:12:49.031 : en:01:12:49.031
01:17:10.084 : en:01:17:10.084
01:25:58.403 : en:01:25:58.403
Скриншоты:
       

_________________


Last edited by KirovSOFT on 2012-07-03 17:56; edited 1 time in total
Other forum [Profile] [PM]
Similar theme
Forum Topic Author Torrent Replies Last Post
./templates/default/images/folder_dl.gif Современная проза, классика, поэзия Чейз Джеймс Хедли - Ты никогда не знал женщин. Ожерелье Эомальди. Банка с червями [Николай Козий, 2008, 80 kbps, MP3] Omen
1 | 0

0 | 694

0

2016-11-25 01:00
Omen Latest
Display posts from previous:    
Reply to topic

The time now is: Today 11:33

All times are GMT + 3 Hours



You cannot post new topics in this forum
You cannot reply to topics in this forum
You cannot edit your posts in this forum
You cannot delete your posts in this forum
You cannot vote in polls in this forum
You cannot attach files in this forum
You cannot download files in this forum