Today is a free download without charge Download

Космические археологи - 4 эпизода (Андрей Соколов) [2010-2013, Россия, фантастические мультфильмы, WEBRip-AVC]

Reply to topic
 
Author
Message

Omen ®

Longevity: 7 years 11 months

Posts: 181087

Торрент-статистика

Post 12-Dec-2015 18:33

[Quote]

Космические археологи (четыре эпизода)
Страна: Россия
Жанр: фантастические мультфильмы
Режиссёр: Андрей Соколов
Музыка: Staratelli
Качество видео: WEBRip-AVC
Формат видео: MP4
Субтитры: отсутствуют
Описание:
Серия мультфильмов по мотивам книжек Андрея Саломатова.
Команда космических археологов (или "ахреологов" - как говорит дедушка) путешествует по различным планетам и возвращает на место изъятые артефакты.
Состав команды: Дедушка (капитан), Алёша (внук), Фуга (инопланетянин-мимикр), Цицерон (робот), Дактиль (птерозавр-механик).

Доп. информация:
Информация по каждому выпуску:
Космические археологи (Пилотный эпизод) Время разбрасывать камни
Год выпуска: 2010
Продолжительность: 00:13:10
Видео: 1476 kbps, 1280х720 (16:9), 25.000 fps, AVC ([email protected])
Аудио: 192 kbps, 44.1 kHz, 2 channels, AAC (LC)

MediaInfo

General
Complete name : Космические археологи 0. Время разбрасывать камни.mp4
Format : MPEG-4
Format profile : Base Media / Version 2
Codec ID : mp42
File size : 157 MiB
Duration : 13mn 10s
Overall bit rate mode : Variable
Overall bit rate : 1 670 Kbps
Encoded date : UTC 2013-12-18 17:09:37
Tagged date : UTC 2013-12-18 17:09:37
gsst : 0
gstd : 790105
gssd : B5FB51044MM1430658400652895
gshh : r1---sn-xapbiu-3xwl.googlevideo.com
Video
ID : 1
Format : AVC
Format/Info : Advanced Video Codec
Format profile : [email protected]
Format settings, CABAC : Yes
Format settings, ReFrames : 1 frame
Format settings, GOP : M=1, N=60
Codec ID : avc1
Codec ID/Info : Advanced Video Coding
Duration : 13mn 10s
Bit rate : 1 476 Kbps
Maximum bit rate : 6 731 Kbps
Width : 1 280 pixels
Height : 720 pixels
Display aspect ratio : 16:9
Frame rate mode : Constant
Frame rate : 25.000 fps
Color space : YUV
Chroma subsampling : 4:2:0
Bit depth : 8 bits
Scan type : Progressive
Bits/(Pixel*Frame) : 0.064
Stream size : 139 MiB (88%)
Tagged date : UTC 2013-12-18 17:09:54
Audio
ID : 2
Format : AAC
Format/Info : Advanced Audio Codec
Format profile : LC
Codec ID : 40
Duration : 13mn 10s
Bit rate mode : Variable
Bit rate : 192 Kbps
Maximum bit rate : 202 Kbps
Channel(s) : 2 channels
Channel positions : Front: L R
Sampling rate : 44.1 KHz
Compression mode : Lossy
Stream size : 18.1 MiB (11%)
Title : IsoMedia File Produced by Google, 5-11-2011
Encoded date : UTC 2013-12-18 17:09:47
Tagged date : UTC 2013-12-18 17:09:54

Скриншоты

Космические археологи (Эпизод 1) Кранты в коробочке
Год выпуска: 2012
Продолжительность: 00:13:10
Видео: 1171 kbps, 1280х720 (16:9), 25.000 fps, AVC ([email protected])
Аудио: 192 kbps, 44.1 kHz, 2 channels, AAC (LC)

MediaInfo

General
Complete name : Космические археологи 1. Кранты в коробочке.mp4
Format : MPEG-4
Format profile : Base Media / Version 2
Codec ID : mp42
File size : 129 MiB
Duration : 13mn 10s
Overall bit rate mode : Variable
Overall bit rate : 1 365 Kbps
Encoded date : UTC 2013-12-25 18:41:48
Tagged date : UTC 2013-12-25 18:41:48
gsst : 0
gstd : 790778
gssd : B4A7DDAE5MH1430658467052676
gshh : r5---sn-4g57kuer.googlevideo.com
Video
ID : 1
Format : AVC
Format/Info : Advanced Video Codec
Format profile : [email protected]
Format settings, CABAC : Yes
Format settings, ReFrames : 1 frame
Codec ID : avc1
Codec ID/Info : Advanced Video Coding
Duration : 13mn 10s
Bit rate : 1 171 Kbps
Maximum bit rate : 5 384 Kbps
Width : 1 280 pixels
Height : 720 pixels
Display aspect ratio : 16:9
Frame rate mode : Constant
Frame rate : 25.000 fps
Color space : YUV
Chroma subsampling : 4:2:0
Bit depth : 8 bits
Scan type : Progressive
Bits/(Pixel*Frame) : 0.051
Stream size : 110 MiB (86%)
Tagged date : UTC 2013-12-25 18:41:58
Audio
ID : 2
Format : AAC
Format/Info : Advanced Audio Codec
Format profile : LC
Codec ID : 40
Duration : 13mn 10s
Bit rate mode : Variable
Bit rate : 192 Kbps
Maximum bit rate : 201 Kbps
Channel(s) : 2 channels
Channel positions : Front: L R
Sampling rate : 44.1 KHz
Compression mode : Lossy
Stream size : 18.1 MiB (14%)
Title : IsoMedia File Produced by Google, 5-11-2011
Encoded date : UTC 2013-12-25 18:41:53
Tagged date : UTC 2013-12-25 18:41:58

Скриншоты

Космические археологи (Эпизод 2) То самое место
Год выпуска: 2012
Продолжительность: 00:13:12
Видео: 1154 kbps, 1280х720 (16:9), 25.000 fps, AVC ([email protected])
Аудио: 192 kbps, 44.1 kHz, 2 channels, AAC (LC)

MediaInfo

General
Complete name : Космические археологи 2. То самое место.mp4
Format : MPEG-4
Format profile : Base Media / Version 2
Codec ID : mp42
File size : 127 MiB
Duration : 13mn 12s
Overall bit rate mode : Variable
Overall bit rate : 1 349 Kbps
Encoded date : UTC 2013-12-22 21:30:08
Tagged date : UTC 2013-12-22 21:30:08
gsst : 0
gstd : 792588
gssd : B5FB51007MM1430658299306578
gshh : r4---sn-xapbiu-3xwe.googlevideo.com
Video
ID : 1
Format : AVC
Format/Info : Advanced Video Codec
Format profile : [email protected]
Format settings, CABAC : Yes
Format settings, ReFrames : 1 frame
Codec ID : avc1
Codec ID/Info : Advanced Video Coding
Duration : 13mn 12s
Bit rate : 1 154 Kbps
Maximum bit rate : 3 756 Kbps
Width : 1 280 pixels
Height : 720 pixels
Display aspect ratio : 16:9
Frame rate mode : Constant
Frame rate : 25.000 fps
Color space : YUV
Chroma subsampling : 4:2:0
Bit depth : 8 bits
Scan type : Progressive
Bits/(Pixel*Frame) : 0.050
Stream size : 109 MiB (86%)
Tagged date : UTC 2013-12-22 21:30:13
Audio
ID : 2
Format : AAC
Format/Info : Advanced Audio Codec
Format profile : LC
Codec ID : 40
Duration : 13mn 12s
Bit rate mode : Variable
Bit rate : 192 Kbps
Maximum bit rate : 201 Kbps
Channel(s) : 2 channels
Channel positions : Front: L R
Sampling rate : 44.1 KHz
Compression mode : Lossy
Stream size : 18.1 MiB (14%)
Title : IsoMedia File Produced by Google, 5-11-2011
Encoded date : UTC 2013-12-22 21:30:11
Tagged date : UTC 2013-12-22 21:30:13

Скриншоты

Космические археологи (Эпизод 3) Эффект мамонта
Год выпуска: 2013
Продолжительность: 00:13:40
Видео: 1311 kbps, 1280х720 (16:9), 25.000 fps, AVC ([email protected])
Аудио: 192 kbps, 44.1 kHz, 2 channels, AAC (LC)

MediaInfo

General
Complete name : Космические археологи 3. Эффект мамонта.mp4
Format : MPEG-4
Format profile : Base Media / Version 2
Codec ID : mp42
File size : 147 MiB
Duration : 13mn 40s
Overall bit rate mode : Variable
Overall bit rate : 1 505 Kbps
Encoded date : UTC 2013-12-23 17:07:03
Tagged date : UTC 2013-12-23 17:07:03
gsst : 0
gstd : 820453
gssd : B5FB51047MM1430658561426122
gshh : r4---sn-xapbiu-3xwl.googlevideo.com
Video
ID : 1
Format : AVC
Format/Info : Advanced Video Codec
Format profile : [email protected]
Format settings, CABAC : Yes
Format settings, ReFrames : 1 frame
Format settings, GOP : M=1, N=60
Codec ID : avc1
Codec ID/Info : Advanced Video Coding
Duration : 13mn 40s
Bit rate : 1 311 Kbps
Maximum bit rate : 6 377 Kbps
Width : 1 280 pixels
Height : 720 pixels
Display aspect ratio : 16:9
Frame rate mode : Constant
Frame rate : 25.000 fps
Color space : YUV
Chroma subsampling : 4:2:0
Bit depth : 8 bits
Scan type : Progressive
Bits/(Pixel*Frame) : 0.057
Stream size : 128 MiB (87%)
Tagged date : UTC 2013-12-23 17:07:21
Audio
ID : 2
Format : AAC
Format/Info : Advanced Audio Codec
Format profile : LC
Codec ID : 40
Duration : 13mn 40s
Bit rate mode : Variable
Bit rate : 192 Kbps
Maximum bit rate : 202 Kbps
Channel(s) : 2 channels
Channel positions : Front: L R
Sampling rate : 44.1 KHz
Compression mode : Lossy
Stream size : 18.8 MiB (13%)
Title : IsoMedia File Produced by Google, 5-11-2011
Encoded date : UTC 2013-12-23 17:07:14
Tagged date : UTC 2013-12-23 17:07:21

Скриншоты

Other forum [Profile] [PM]
Similar theme
Forum Topic Author Torrent Replies Last Post
./templates/default/images/folder_dl.gif RTS (стратегии в реальном времени) Space Rangers HD: A War Apart / Космические рейнджеры HD: Революция (2013) [Ru/En] (2.1.2170.0) Repack R.G. Catalyst }{@R0N
1 | 0

0 | 22150

7

2017-03-04 22:35
}{@R0N Latest
Display posts from previous:    
Reply to topic

The time now is: Today 18:54

All times are GMT + 3 Hours



You cannot post new topics in this forum
You cannot reply to topics in this forum
You cannot edit your posts in this forum
You cannot delete your posts in this forum
You cannot vote in polls in this forum
You cannot attach files in this forum
You cannot download files in this forum