Today is a free download without charge Download

Слушается дело о... (Юрий Бутырин) [1976, СССР, Союзмультфильм, Мультфильм, DVB]

Reply to topic
 
Author
Message

Omen ®

Longevity: 7 years 11 months

Posts: 181087

Торрент-статистика

Post 10-Dec-2015 09:00

[Quote]

Слушается дело о...
Страна: СССР, Союзмультфильм
Жанр: Мультфильм
Продолжительность: 00:09:34
Год выпуска: 1976
Перевод: Не требуется
Русские субтитры: нет
Режиссёр: Юрий Бутырин
Роли озвучивали: Вера Васильева, Игорь Дивов, Олег Анофриев
Описание: Сатирический фильм про алкоголиков и алкоголизм.

Я на :

Качество: DVB
Формат: MPEG-TS
Видео: MPEG Video, 3487 kbps, 704 x 576 (1.333), 25 fps
Аудио: MPEG Audio, 160 kbps, 2 ch, 48 kHz
Субтитры: Отсутствуют

Подробные технические данные

ОбщееИдентификатор : 1 (0x1)Полное имя : D:\00-Слушается дело о\Слушается дело о ....tsФормат : MPEG-TSРазмер файла : 263 МбайтПродолжительность : 9 м. 34 с.Режим общего битрейта : ПеременныйОбщий поток : 3838 Кбит/сек
ВидеоИдентификатор : 1310 (0x51E)Идентификатор меню : 310 (0x136)Формат : MPEG VideoВерсия формата : Version 2Профиль формата : [email protected]Параметр BVOP формата : ДаПараметр матрицы формата : ВыборочнаяПараметр GOP формата : VariableСтруктура изображения : FrameИдентификатор кодека : 2Продолжительность : 9 м. 34 с.Вид битрейта : ПеременныйБитрейт : 3487 Кбит/секМаксимальный битрейт : 15,0 Мбит/секШирина : 704 пикселяВысота : 576 пикселейСоотношение сторон : 4:3Частота кадров : 25,000 кадров/секСтандарт вещания : PALЦветовое пространство : YUVСубдискретизация насыщенности : 4:2:0Битовая глубина : 8 битТип развёртки : ЧересстрочнаяПорядок развёртки : Верхнее поле первоеМетод сжатия : С потерямиБит/(Пиксели*Кадры) : 0.344Временной код первого кадра : 00:00:00:00Оригинал временного кода : Group of pictures headerGOP, открыто/закрыто : ОткрытоGOP, открыто/закрыто на первом кадре : ЗакрытоРазмер потока : 239 Мбайт (91%)
АудиоИдентификатор : 2310 (0x906)Идентификатор меню : 310 (0x136)Формат : MPEG AudioВерсия формата : Version 1Профиль формата : Layer 2Идентификатор кодека : 3Продолжительность : 9 м. 34 с.Вид битрейта : ПостоянныйБитрейт : 160 Кбит/секКаналы : 2 каналаЧастота : 48,0 КГцМетод сжатия : С потерямиЗадержка видео : 11 мс.Размер потока : 11,0 Мбайт (4%)Язык : Russian

Скриншоты

Other forum [Profile] [PM]
Display posts from previous:    
Reply to topic

The time now is: Today 10:54

All times are GMT + 3 Hours



You cannot post new topics in this forum
You cannot reply to topics in this forum
You cannot edit your posts in this forum
You cannot delete your posts in this forum
You cannot vote in polls in this forum
You cannot attach files in this forum
You cannot download files in this forum