Today is a free download without charge Download

Лев и 9 гиен (Галина Баринова) [1988, СССР, Союзмультфильм, Мультфильм, DVB]

Reply to topic
 
Author
Message

Omen ®

Longevity: 7 years 11 months

Posts: 181087

Торрент-статистика

Post 09-Dec-2015 15:05

[Quote]

Лев и 9 гиен
Страна: СССР, Союзмультфильм
Жанр: Мультфильм
Продолжительность: 00:09:24
Год выпуска: 1988
Перевод: Не требуется
Русские субтитры: нет
Режиссёр: Галина Баринова
Роли озвучивали: Николай Граббе, Нина Гуляева, Леонид Марков, Ия Саввина, Рогволд Суховерко, Мария Виноградова, Лариса Удовиченко, Ирина Карташёва, Вячеслав Невинный, Всеволод Ларионов
Описание: По мотивам африканской народной сказки в пересказе В. Важдаева.


Качество: DVB
Формат: MPEG-TS
Видео: MPEG Video, 4726 kbps, 704 x 576 (1.333), 25 fps
Аудио: MPEG Audio, 160 kbps, 2 ch, 48 kHz
Субтитры: Отсутствуют

Подробные технические данные

ОбщееИдентификатор : 1 (0x1)Полное имя : D:\00-Лев и 9 гиен\Лев и 9 гиен.tsФормат : MPEG-TSРазмер файла : 346 МбайтПродолжительность : 9 м. 24 с.Режим общего битрейта : ПеременныйОбщий поток : 5141 Кбит/сек
ВидеоИдентификатор : 1310 (0x51E)Идентификатор меню : 310 (0x136)Формат : MPEG VideoВерсия формата : Version 2Профиль формата : [email protected]Параметр BVOP формата : ДаПараметр матрицы формата : ВыборочнаяПараметр GOP формата : VariableСтруктура изображения : FrameИдентификатор кодека : 2Продолжительность : 9 м. 24 с.Вид битрейта : ПеременныйБитрейт : 4726 Кбит/секМаксимальный битрейт : 15,0 Мбит/секШирина : 704 пикселяВысота : 576 пикселейСоотношение сторон : 4:3Частота кадров : 25,000 кадров/секСтандарт вещания : PALЦветовое пространство : YUVСубдискретизация насыщенности : 4:2:0Битовая глубина : 8 битТип развёртки : ЧересстрочнаяПорядок развёртки : Верхнее поле первоеМетод сжатия : С потерямиБит/(Пиксели*Кадры) : 0.466Временной код первого кадра : 00:00:00:00Оригинал временного кода : Group of pictures headerGOP, открыто/закрыто : ОткрытоРазмер потока : 318 Мбайт (92%)
АудиоИдентификатор : 2310 (0x906)Идентификатор меню : 310 (0x136)Формат : MPEG AudioВерсия формата : Version 1Профиль формата : Layer 2Идентификатор кодека : 3Продолжительность : 9 м. 24 с.Вид битрейта : ПостоянныйБитрейт : 160 Кбит/секКаналы : 2 каналаЧастота : 48,0 КГцМетод сжатия : С потерямиЗадержка видео : 11 мс.Размер потока : 10,8 Мбайт (3%)Язык : Russian

Скриншоты

Other forum [Profile] [PM]
Display posts from previous:    
Reply to topic

The time now is: Today 20:06

All times are GMT + 3 Hours



You cannot post new topics in this forum
You cannot reply to topics in this forum
You cannot edit your posts in this forum
You cannot delete your posts in this forum
You cannot vote in polls in this forum
You cannot attach files in this forum
You cannot download files in this forum