Today is a free download without charge Download

Пароль «Рыба-меч» / Swordfish (Доминик Сена) [2001 г., боевик, триллер, криминал, BDRip 720]

Reply to topic
 
Author
Message

BoxeR ®

Gender:

Longevity: 9 years 2 months

Posts: 423

Торрент-статистика

Post 29-Jun-2012 13:32

[Quote]

Пароль «Рыба-меч» / Swordfish-
Год: 2001
Страна: США , Австралия
Жанр: Боевик, Триллер, Криминал-Продолжительность: 01:39:15
Перевод: Профессиональный (полное дублирование)
Субтитры: Нет-Режиссер: Доминик Сена
В ролях: Джон Траволта, Хью Джекман, Холли Берри, Дон Чидл, Сэм Шепард, Винни Джонс, Дреа Де Маттео, Рудольф Мартин, Зэк Гренье, Камрин Граймс, Angelo Pagan, Чарльз Дэниэл, Кирк Б.Р. Уоллер, Кармен Аргензиано, Тим ДиКей, Лаура Лэйн, Тейт Рупперт, Крэйг Браун, Уильям Мапотер, Илья Волох, Джон Фрайзер-Описание: Один из самых опасных шпионов в мире - харизматичный Гэбриэл Шир - работавший когда-то на ЦРУ, а ныне ставший гениальным преступником, задумывает украсть 9 миллиардов долларов из нелегальных правительственных фондов. Для этого ему нужны помощь суперхакера, способного взломать систему безопасности любой компьютерной сети. Таким умельцем является Стенли Джобсон, который недавно отсидел срок за взлом ФБР.
В результате Джобсон остался без гроша, без любимого занятия, а главное - без любимой дочери Холли. Гэбриэл и его очаровательная партнёрша Джинжер заманивают Стэнли в своё дерзкое предприятие, обещая хакеру то, от чего он не может отказаться - в обмен на выполненную работу он получит опекунство над дочерью и шанс начать новую жизнь.
Однако, взявшись за реализацию этой сложной и рискованной операции, Стэнли вдруг понимает, что он лишь пешка в большой игре...
-Качество: BDRip 720р
Формат: MKV
Видео кодек: H.264
Аудио кодек: AC3 (6 ch)
Видео: 1280x532 (2.40:1), 23,976 fps, 2927 Кбит/сек, AVC
Аудио: Russian, 384 Кбит/сек, 48,0 КГц, 16 бит, 6 канала(ов), AC-3-

MediaInfo

Общее
Уникальный идентификатор : 221633508261400532359528102825836754473 (0xA6BD0F9F4535CFE495AF02A0549D3629)
Полное имя : D:\Фильмы\Swordfish.(2001).mkv
Формат : Matroska
Размер файла : 2,26 Гбайт
Продолжительность : 1 ч. 39 м.
Общий поток : 3261 Кбит/сек
Дата кодирования : UTC 2010-11-07 15:52:53
Программа кодирования : mkvmerge v3.0.0 ('Hang up your Hang-Ups') built on Dec 12 2009 15:20:35
Библиотека кодирования : libebml v0.7.9 + libmatroska v0.8.1
Обложка : Yes / Yes
Видео
Идентификатор : 1
Формат : AVC
Формат/Информация : Advanced Video Codec
Профиль формата : [url=mailto:[email protected]][email protected][/url]
Параметр CABAC формата : Да
Параметр ReFrames формата : 3 кадра
Параметры GOP формата : M=4, N=24
Идентификатор кодека : V_MPEG4/ISO/AVC
Продолжительность : 1 ч. 39 м.
Вид битрейта : Переменный
Битрейт : 2927 Кбит/сек
Максимальный битрейт : 17,5 Мбит/сек
Ширина : 1280 пикс.
Высота : 532 пикс.
Соотношение сторон : 2,40:1
Соотношение сторон в оригинале : 2,40:1
Частота кадров : 23,976 кадр/сек
Цветовое пространство : YUV
Подвыборка цветности : 4:2:0
Битовая глубина : 8 бит
Тип развёртки : Прогрессивная
Бит/(Пиксели*Кадры) : 0.179
Размер потока : 1,95 Гбайт (86%)
Заголовок : Пароль «Рыба-меч».(2001)
Библиотека кодирования : x264 core 105 r1732 2b04482
Настройки программы : cabac=1 / ref=3 / deblock=1:0:0 / analyse=0x3:0x113 / me=hex / subme=7 / psy=1 / psy_rd=1.00:0.00 / mixed_ref=1 / me_range=16 / chroma_me=1 / trellis=1 / 8x8dct=1 / cqm=0 / deadzone=21,11 / fast_pskip=1 / chroma_qp_offset=-2 / threads=6 / sliced_threads=0 / slices=4 / nr=0 / decimate=1 / interlaced=0 / constrained_intra=0 / bframes=3 / b_pyramid=1 / b_adapt=1 / b_bias=0 / direct=1 / weightb=1 / open_gop=0 / weightp=0 / keyint=24 / keyint_min=1 / scenecut=40 / intra_refresh=0 / rc_lookahead=24 / rc=abr / mbtree=1 / bitrate=2927 / ratetol=1.0 / qcomp=0.60 / qpmin=0 / qpmax=51 / qpstep=4 / vbv_maxrate=17500 / vbv_bufsize=14500 / ip_ratio=1.10 / aq=1:1.00 / nal_hrd=vbr
Язык : English
Аудио
Идентификатор : 2
Формат : AC-3
Формат/Информация : Audio Coding 3
Расширение режима : CM (complete main)
Идентификатор кодека : A_AC3
Продолжительность : 1 ч. 39 м.
Вид битрейта : Постоянный
Битрейт : 384 Кбит/сек
Каналы : 6 каналов
Расположение каналов : Front: L C R, Side: L R, LFE
Частота : 48,0 КГц
Битовая глубина : 16 бит
Метод сжатия : С потерями
Размер потока : 273 Мбайт (12%)
Заголовок : Dolby Digital Audio / 5.1 / 48 kHz / 384 kbps; Дубляж
Язык : Russian

-

Интересные факты:


  • В одной из сцен этого фильма Хэлли Берри впервые появляется топлес. После выхода картины на экран в прессе ходили слухи, что за появление в обнажённом виде гонорар актрисы был увеличен на два миллиона долларов. Сама Берри впоследствии заявила, что создатели фильма заплатили ей по 250 тысяч за каждую обнажённую грудь.
  • Как и во многих других фильмах о хакерах, процесс создания «червя» показан довольно нереально — компьютер Стэнли имеет трёхмерный интерфейс, и даже сам «червь» выглядит как трёхмерный куб с бегающими линиями кода. На самом деле, работа хакера за компьютером по большей части происходит в режиме командной строки, так как программисты в большинстве своем крайне презрительно относятся к графическим оболочкам — они уязвимы, и забирают много ресурсов. Также можно заметить и другие стандартные голливудские «ляпы» — на клавиатуре печатают, не используя пробел; главный герой так вообще печатает практически на одной линии клавиш клавиатуры и т. д.
  • Главный герой взламывает теоретически не взламываемый шифр Вернама.
  • Имя первого хакера, Акселя Торвальдса, обыгрывает два самых известных имени в компьютерном мире. Это «Аксель» — «Excel», известная программа, входящая в состав Microsoft Office и «Торвальдс» — фамилия создателя Linux, Линуса Торвальдса.
  • На двери туалета, в котором происходит сцена поцелуя главного героя с Джинжер изображён серп и молот — символ СССР. А название самого клуба, в котором находились персонажи — «Красная жара», по аналогии с одноименным фильмом.
  • У героя Джона Траволты спортивный автомобиль с рулем справа, для левостороннего движения, возможно, таким образом, подчеркивается независимость героя, о которой говорится в начале фильма.
  • В сцене, в которой герой Траволты убивает сенатора Рейсмана, уровень воды постоянно меняется при смене кадра.

Скриншоты:

           

Other forum [Profile] [PM]
Display posts from previous:    
Reply to topic

The time now is: Today 01:08

All times are GMT + 3 Hours



You cannot post new topics in this forum
You cannot reply to topics in this forum
You cannot edit your posts in this forum
You cannot delete your posts in this forum
You cannot vote in polls in this forum
You cannot attach files in this forum
You cannot download files in this forum