Today is a free download without charge Download

Жена астронавта / The Astronaut's Wife (Рэнд Рэвич / Rand Ravich) [1999, США, фантастика, триллер, драма, BDRip 720p] Dub Sub Rus + Original Eng

Reply to topic
 
Author
Message

Delia ®

Gender:

Longevity: 10 years

Posts: 1821

Торрент-статистика

Post 29-Jun-2012 11:29

[Quote]

Жена астронавта / The Astronaut's Wife«Witness the birth of pure evil»--
Год выпуска: 1999
Страна: США
Жанр: фантастика, триллер, драма, ...
Продолжительность: 01:49:09
Перевод: Профессиональный (дублированный)
Субтитры: Russian , english (srt)
Режиссер: Рэнд Рэвич
Сценарий: Рэнд Рэвич
Продюсер: Джоди Хедьен, Марк Джонсон, Донна Лэнгли, ...
Оператор: Аллен Давио
Композитор: Джордж С. Клинтон
Художник: Ян Рулфс, Сара Ноулз, Айзис Массенден, ...
Монтаж: Тимоти Элверсон, Стив Миркович- В ролях: Джонни Депп (Johnny Depp), Шарлиз Терон (Charlize Theron), Джо Мортон (Joe Morton), Клеа ДюВалл (Clea DuVall), Донна Мерфи (Donna Murphy), Ник Кассаветис (Nick Cassavetes), Саманта Эггар (Samantha Eggar), Гэри Граббс (Gary Grubbs), Блэр Браун (Blair Brown), Том Нунен (Tom Noonan), Том О’Брайен (Tom O'Brien), Люси Лин (Lucy Lin), Майкл Крайдер (Michael Crider), Джейкоб Стейн (Jacob Stein), Тимоти Уикер (Timothy Wicker), Сара Дэмф (Sarah Dampf), Чарльз Лэниер (Charles Lanyer), Гэри Сервантес (Gary Carlos Cervantes), Конрад Бахманн (Conrad Bachmann), Ронди Рид (Rondi Reed)
Описание: Находясь в открытом космосе, астронавт Спенсер Армакост (Джонни Депп) на несколько минут потерял связь с Землей. Но все обошлось, и экипажу удалось вернуться назад. Спенсер и его жена опять были вместе.Но вскоре Джиллиан (Шарлиз Терон) начинает подозревать, что ее муж стал другим. И если прежде она тревожилась за его жизнь, то теперь стала бояться за свою. Она оказалась один на один с пугающей неизвестностью...-Рейтинг MPAA: -- --Качество: BDRip
Формат: MKV
Видео кодек: H.264 (AVC)
Аудио кодеk: DTS
Видео: 1280x720 (16:9), 23.976 fps, AVC, 5 823 Kbps
Аудио: DTS, 755 Kbps, 48.0 KHz, 6 ch, rus
Аудио #2: DTS, 755 Kbps, 48.0 KHz, 6 ch, eng

МедиаИнфо

Код:
General
Complete name                    : Ghena astronafta(1999)BDRip720p.mkv
Format                           : Matroska
File size                        : 5.59 GiB
Duration                         : 1h 49mn
Overall bit rate                 : 7 329 Kbps
Encoded date                     : UTC 2012-06-28 21:30:32
Writing application              : mkvmerge v5.6.0 ('Kenya Kane') built on May 27 2012 16:44:04
Writing library                  : libebml v1.2.3 + libmatroska v1.3.0
Video
ID                               : 1
Format                           : AVC
Format/Info                      : Advanced Video Codec
Format profile                   : [email protected]
Format settings, CABAC           : Yes
Format settings, ReFrames        : 9 frames
Muxing mode                      : Container [email protected]
Codec ID                         : V_MPEG4/ISO/AVC
Duration                         : 1h 49mn
Bit rate                         : 5 823 Kbps
Width                            : 1 280 pixels
Height                           : 720 pixels
Display aspect ratio             : 16:9
Frame rate                       : 23.976 fps
Color space                      : YUV
Chroma subsampling               : 4:2:0
Bit depth                        : 8 bits
Scan type                        : Progressive
Bits/(Pixel*Frame)               : 0.264
Stream size                      : 4.33 GiB (77%)
Writing library                  : x264 core 125 r2200 999b753
Encoding settings                : cabac=1 / ref=9 / deblock=1:-2:-2 / analyse=0x3:0x113 / me=umh / subme=10 / psy=1 / psy_rd=1.00:0.15 / mixed_ref=1 / me_range=48 / chroma_me=1 / trellis=2 / 8x8dct=1 / cqm=0 / deadzone=21,11 / fast_pskip=0 / chroma_qp_offset=-3 / threads=6 / lookahead_threads=1 / sliced_threads=0 / nr=0 / decimate=1 / interlaced=0 / bluray_compat=0 / constrained_intra=0 / bframes=8 / b_pyramid=2 / b_adapt=2 / b_bias=0 / direct=3 / weightb=1 / open_gop=0 / weightp=2 / keyint=240 / keyint_min=23 / scenecut=40 / intra_refresh=0 / rc=2pass / mbtree=0 / bitrate=5823 / ratetol=1.0 / qcomp=0.70 / qpmin=0 / qpmax=69 / qpstep=4 / cplxblur=20.0 / qblur=0.5 / ip_ratio=1.40 / pb_ratio=1.30 / aq=2:0.90
Color primaries                  : BT.709-5, BT.1361, IEC 61966-2-4, SMPTE RP177
Transfer characteristics         : BT.709-5, BT.1361
Matrix coefficients              : BT.709-5, BT.1361, IEC 61966-2-4 709, SMPTE RP177
Audio #1
ID                               : 2
Format                           : DTS
Format/Info                      : Digital Theater Systems
Codec ID                         : A_DTS
Duration                         : 1h 49mn
Bit rate mode                    : Constant
Bit rate                         : 755 Kbps
Channel(s)                       : 6 channels
Channel positions                : Front: L C R, Side: L R, LFE
Sampling rate                    : 48.0 KHz
Bit depth                        : 24 bits
Stream size                      : 589 MiB (10%)
Language                         : Russian
Audio #2
ID                               : 3
Format                           : DTS
Format/Info                      : Digital Theater Systems
Codec ID                         : A_DTS
Duration                         : 1h 49mn
Bit rate mode                    : Constant
Bit rate                         : 755 Kbps
Channel(s)                       : 6 channels
Channel positions                : Front: L C R, Side: L R, LFE
Sampling rate                    : 48.0 KHz
Bit depth                        : 24 bits
Stream size                      : 589 MiB (10%)
Text #1
ID                               : 4
Format                           : UTF-8
Codec ID                         : S_TEXT/UTF8
Codec ID/Info                    : UTF-8 Plain Text
Language                         : Russian
Text #2
ID                               : 5
Format                           : UTF-8
Codec ID                         : S_TEXT/UTF8
Codec ID/Info                    : UTF-8 Plain Text
Menu
00:00:00.000                     : en:Chapter 01
00:04:23.513                     : en:Chapter 02
00:08:36.307                     : en:Chapter 03
00:12:30.750                     : en:Chapter 04
00:16:50.009                     : en:Chapter 05
00:21:50.434                     : en:Chapter 06
00:25:10.509                     : en:Chapter 07
00:32:56.599                     : en:Chapter 08
00:35:46.644                     : en:Chapter 09
00:38:42.194                     : en:Chapter 10
00:42:10.528                     : en:Chapter 11
00:50:05.585                     : en:Chapter 12
00:59:01.412                     : en:Chapter 13
01:02:08.433                     : en:Chapter 14
01:17:23.847                     : en:Chapter 15
01:22:10.926                     : en:Chapter 16
01:28:05.530                     : en:Chapter 17
01:34:47.682                     : en:Chapter 18
01:41:06.477                     : en:Chapter 19
01:49:08.792                     : en:Chapter 20

Знаете ли Вы, что...

» Этот фильм является режиссерским дебютом сценариста Рэнда Рэвича.
» Депп получил за этот фильм гонорар в $8 млн. вместо обычных $5 млн. За эти деньги он отрезал свои кудри, а то, что осталось, покрасил в горчичный цвет.


Скриншоты

     
     

_________________
Человек – это канат, натянутый между животным и сверхчеловеком, – канат над пропастью.
В человеке ценно то, что он мост, а не цель. Фридрих Ницше
Other forum [Profile] [PM]
Display posts from previous:    
Reply to topic

The time now is: Today 12:32

All times are GMT + 3 Hours



You cannot post new topics in this forum
You cannot reply to topics in this forum
You cannot edit your posts in this forum
You cannot delete your posts in this forum
You cannot vote in polls in this forum
You cannot attach files in this forum
You cannot download files in this forum