Today is a free download without charge Download

Миннесота (Андрей Прошкин) [2009, Россия, Драма, спорт, HDTV 1080i] + Original Rus

Reply to topic
 
Author
Message

Omen ®

Longevity: 8 years 10 months

Posts: 181086

Торрент-статистика

Post 06-Dec-2015 00:24

[Quote]

Миннесота
Страна: Россия
Студия: «Тан-фильм» по заказу «Централ Партнершип»
Жанр: Драма, спорт
Год выпуска: 2009
Продолжительность: 01:29:00
Перевод: Не требуется
Cубтитры: нет
Оригинальная аудиодорожка: русский
Режиссер: Андрей Прошкин
В ролях: Сергей Горобченко, Антон Пампушный, Анна Уколова, Алексей Шевченков, Андрей Аверьянов, Виталий Хаев, Лидия Матасова
Описание:
История двух братьев — хоккеистов провинциальной команды. Одному из них предлагают контракт в Америке, но он отказывается ехать без брата. На сложных взаимоотношениях братьев, мечтающих вырваться из тягучей провинциальной жизни, строится психологическая драма талантливых людей, которым тесно в клетке привычного им мира, но покинуть эту клетку труднее, чем кажется.
Сэмпл: http://multi-up.com/1077826
Тип релиза: HDTV 1080i
Контейнер: TS
Видео: AVC, 1920x1080, (16:9), 25 fps, 8 378 Kbps
Аудио: MP2, 48 kHz; 2 ch; 192 kbps

MediaInfo

General
ID : 1 (0x1)
Complete name : C:\Миннесота_2009_HDTV 1080i.ts
Format : MPEG-TS
File size : 5.62 GiB
Duration : 1h 29mn
Overall bit rate mode : Variable
Overall bit rate : 9 018 Kbps
Video
ID : 204 (0xCC)
Menu ID : 2204 (0x89C)
Format : AVC
Format/Info : Advanced Video Codec
Format profile : [email protected]
Format settings, CABAC : Yes
Format settings, ReFrames : 4 frames
Format settings, GOP : M=4, N=28
Codec ID : 27
Duration : 1h 29mn
Bit rate : 8 378 Kbps
Width : 1 920 pixels
Height : 1 080 pixels
Display aspect ratio : 16:9
Frame rate : 25.000 fps
Standard : Component
Color space : YUV
Chroma subsampling : 4:2:0
Bit depth : 8 bits
Scan type : Interlaced
Scan type, store method : Separated fields
Scan order : Top Field First
Bits/(Pixel*Frame) : 0.162
Stream size : 5.22 GiB (93%)
Color range : Limited
Color primaries : BT.709
Transfer characteristics : BT.709
Matrix coefficients : BT.709
Audio
ID : 304 (0x130)
Menu ID : 2204 (0x89C)
Format : MPEG Audio
Format version : Version 1
Format profile : Layer 2
Codec ID : 3
Duration : 1h 29mn
Bit rate mode : Constant
Bit rate : 192 Kbps
Channel(s) : 2 channels
Sampling rate : 48.0 KHz
Compression mode : Lossy
Stream size : 123 MiB (2%)
Language : Russian

Скриншоты

Other forum [Profile] [PM]
Display posts from previous:    
Reply to topic

The time now is: Today 03:47

All times are GMT + 3 Hours



You cannot post new topics in this forum
You cannot reply to topics in this forum
You cannot edit your posts in this forum
You cannot delete your posts in this forum
You cannot vote in polls in this forum
You cannot attach files in this forum
You cannot download files in this forum