Today is a free download without charge Download

Тысяча слов / A Thousand Words (Брайан Роббинс) [2012, Комедия, драма, BDRip 720p]

Reply to topic
 
Author
Message

BoxeR ®

Gender:

Longevity: 9 years

Posts: 423

Торрент-статистика

Post 28-Jun-2012 22:37

[Quote]

Тысяча слов / A Thousand Words--
  • Год выхода: 2012
  • Страна: США, DreamWorks SKG
  • Жанр: комедия, драма
  • Продолжительность: 01:31:30
  • Перевод: Профессиональный (двухголосый)
  • Субтитры: Russian, English, Portuguese
-
  • Режиссёр:
    Брайан Роббинс
-
  • В ролях:
    Эдди Мёрфи, Керри Вашингтон, Эмануэл Рэгсдэйл, Джилл Бейси, Грег Коллинз, Роберт Лекванг, Майкл Дж. Уилкинсон, Линдси Нельсон, Майкл Коуди Гилберт, Лу Салиба
-
  • Описание:
    Главный герой — трепло, каких свет не видывал. И вот однажды этот говорливый персонаж узнаёт, что ему осталось произнести вслух ровно тысячу слов, после чего он обязательно умрёт…
-
  • Качество: BDRip 720p
  • Формат: MKV
  • Видео кодек: H.264
  • Аудио кодек: AC3
  • Видео: AVC, 1280x534 (2.35), 23.976 fps, 5 500 Kbps (0.327 bit/pixel)
  • Аудио 1: AC-3, 48.0 KHz, 6 ch, 448 Kbps, CBR [Russian]
  • Аудио 2: AC-3, 48.0 KHz, 6 ch, 640 Kbps, CBR [English]
-

MediaInfo

General
Unique ID : 206646236218584274849365667375155900537 (0x9B769E0F6C2A319B970EC4249401F079)
Complete name : D:\Фильмы\Тысяча слов_720p.mkv
Format : Matroska
Format version : Version 2
File size : 4.21 GiB
Duration : 1h 31mn
Overall bit rate : 6 588 Kbps
Encoded date : UTC 2012-06-23 14:42:42
Writing application : mkvmerge v5.6.0 ('Kenya Kane') built on May 27 2012 16:44:04
Writing library : libebml v1.2.3 + libmatroska v1.3.0
Video
ID : 1
Format : AVC
Format/Info : Advanced Video Codec
Format profile : [email protected]
Format settings, CABAC : Yes
Format settings, ReFrames : 11 frames
Codec ID : V_MPEG4/ISO/AVC
Duration : 1h 31mn
Bit rate : 5 500 Kbps
Width : 1 280 pixels
Height : 534 pixels
Display aspect ratio : 2.40:1
Frame rate : 23.976 fps
Color space : YUV
Chroma subsampling : 4:2:0
Bit depth : 8 bits
Scan type : Progressive
Bits/(Pixel*Frame) : 0.336
Stream size : 3.43 GiB (81%)
Writing library : x264 core 116 r2057 0ba8a9c
Encoding settings : cabac=1 / ref=11 / deblock=1:-3:-3 / analyse=0x3:0x133 / me=umh / subme=10 / psy=1 / psy_rd=1.00:0.00 / mixed_ref=1 / me_range=32 / chroma_me=1 / trellis=2 / 8x8dct=1 / cqm=0 / deadzone=21,11 / fast_pskip=0 / chroma_qp_offset=-2 / threads=14 / sliced_threads=0 / nr=0 / decimate=0 / interlaced=0 / bluray_compat=0 / constrained_intra=0 / bframes=7 / b_pyramid=2 / b_adapt=2 / b_bias=0 / direct=3 / weightb=1 / open_gop=0 / weightp=2 / keyint=250 / keyint_min=23 / scenecut=40 / intra_refresh=0 / rc_lookahead=40 / rc=2pass / mbtree=0 / bitrate=5500 / ratetol=1.0 / qcomp=0.65 / qpmin=0 / qpmax=40 / qpstep=4 / cplxblur=20.0 / qblur=0.5 / vbv_maxrate=50000 / vbv_bufsize=50000 / nal_hrd=none / ip_ratio=1.25 / pb_ratio=1.25 / aq=1:0.65
Language : English
Default : Yes
Forced : No
Audio #1
ID : 2
Format : AC-3
Format/Info : Audio Coding 3
Mode extension : CM (complete main)
Format settings, Endianness : Big
Codec ID : A_AC3
Duration : 1h 31mn
Bit rate mode : Constant
Bit rate : 448 Kbps
Channel(s) : 6 channels
Channel positions : Front: L C R, Side: L R, LFE
Sampling rate : 48.0 KHz
Bit depth : 16 bits
Compression mode : Lossy
Stream size : 293 MiB (7%)
Language : Russian
Default : Yes
Forced : No
Audio #2
ID : 3
Format : AC-3
Format/Info : Audio Coding 3
Mode extension : CM (complete main)
Format settings, Endianness : Big
Codec ID : A_AC3
Duration : 1h 31mn
Bit rate mode : Constant
Bit rate : 640 Kbps
Channel(s) : 6 channels
Channel positions : Front: L C R, Side: L R, LFE
Sampling rate : 48.0 KHz
Bit depth : 16 bits
Compression mode : Lossy
Stream size : 419 MiB (10%)
Language : English
Default : No
Forced : No
Text #1
ID : 4
Format : UTF-8
Codec ID : S_TEXT/UTF8
Codec ID/Info : UTF-8 Plain Text
Language : Russian
Default : No
Forced : No
Text #2
ID : 5
Format : UTF-8
Codec ID : S_TEXT/UTF8
Codec ID/Info : UTF-8 Plain Text
Language : English
Default : No
Forced : No
Text #3
ID : 6
Format : UTF-8
Codec ID : S_TEXT/UTF8
Codec ID/Info : UTF-8 Plain Text
Language : Portuguese
Default : No
Forced : No
Menu
00:00:00.000 : en:00:00:00.000
00:07:33.870 : en:00:07:33.870
00:13:04.283 : en:00:13:04.283
00:21:34.627 : en:00:21:34.627
00:28:14.067 : en:00:28:14.067
00:34:47.585 : en:00:34:47.585
00:41:34.784 : en:00:41:34.784
00:46:32.123 : en:00:46:32.123
00:53:28.705 : en:00:53:28.705
01:00:09.231 : en:01:00:09.231
01:09:17.445 : en:01:09:17.445
01:14:51.862 : en:01:14:51.862
01:21:50.906 : en:01:21:50.906
01:26:46.034 : en:01:26:46.034

Скриншоты

     
Other forum [Profile] [PM]
Display posts from previous:    
Reply to topic

The time now is: Today 02:47

All times are GMT + 3 Hours



You cannot post new topics in this forum
You cannot reply to topics in this forum
You cannot edit your posts in this forum
You cannot delete your posts in this forum
You cannot vote in polls in this forum
You cannot attach files in this forum
You cannot download files in this forum