Today is a free download without charge Download

Железное небо / Iron Sky (Тимо Вуоренсола) [2012, фантастика, боевик, комедия, BDRip 720p]

Reply to topic
 
Author
Message

BoxeR ®

Gender:

Longevity: 9 years 2 months

Posts: 423

Торрент-статистика

Post 28-Jun-2012 22:31

[Quote]

Железное небо / Iron Sky-«Они идут с миром!»- Год выпуска: 2012
Страна: Германия, Финляндия, Австралия / Blind Spot Pictures Oy, 27 Films Production, New Holland Pictures
Жанр: фантастика, боевик, комедия
Продолжительность: 01:32:33
Перевод: Профессиональное (многоголосое)
Язык субтитров: Russian [Forced,Full], English-Режиссер: Тимо Вуоренсола
В ролях: Юлия Дитце, Удо Кир, Пета Сержант, Ким Джексон, Гёц Отто, Стефани Пол, Кристофер Кирби, Моника Госсманн, Джим Нобелок, Юки Ивамото-О фильме:
Группа ученых под руководством офицера СС Ханса Каммлера добилась серьезных успехов по части антигравитации. Когда исход Второй Мировой войны стал очевиден, с антарктической базы гитлеровцы запустили несколько космических кораблей, чтобы их экипаж на темной стороне Луны основал секретную военную базу Schwarze Sonne (Черное Солнце). План Германии состоял в возведении мощной армады для решающего удара по Земле с последующим завоеванием планеты. И в 2018 году Четвертый Рейх перешел в наступление.-Качество: BDRip 720p
Формат: MKV
Видеокодек: H.264
Аудиокодек: DTS
Видео: MPEG-4 AVC, 3500 Кбит/с, 1280x544, 24.000 кадр/с, 0.209 Бит/(Пиксели*Кадры)
Аудио: Russian / English: DTS, 1510 kb/s (6 ch)-Семпл: http://multi-up.com/722408
-

Доп.Информация

-Релиз группы: -За озвучку спасибо Bluebird-Сохранены оригинальные чаптеры как на Blu-ray.

MI

General
Unique ID : 243867389453650649211439113070435888907 (0xB7772699929A8148B0EC3ED9C09BEF0B)
Complete name : Zheleznoe.nebo.2012.P.BDRip.720p.IRONCLUB.mkv
Format : Matroska
Format version : Version 2
File size : 4.22 GiB
Duration : 1h 32mn
Overall bit rate : 6 523 Kbps
Movie name : IRONCLUB
Encoded date : UTC 2012-06-22 11:21:34
Writing application : mkvmerge v4.9.1 ('Ich will') built on Jul 11 2011 23:53:15
Writing library : libebml v1.2.1 + libmatroska v1.1.1
Video
ID : 1
Format : AVC
Format/Info : Advanced Video Codec
Format profile : [url=mailto:[email protected]][email protected][/url]
Format settings, CABAC : Yes
Format settings, ReFrames : 9 frames
Codec ID : V_MPEG4/ISO/AVC
Duration : 1h 32mn
Bit rate : 3 500 Kbps
Width : 1 280 pixels
Height : 544 pixels
Display aspect ratio : 2.35:1
Frame rate : 24.000 fps
Color space : YUV
Chroma subsampling : 4:2:0
Bit depth : 8 bits
Scan type : Progressive
Bits/(Pixel*Frame) : 0.209
Stream size : 2.18 GiB (52%)
Title : Iron Sky 2012 720p BluRay x264 DTS-EbP
Writing library : x264 core 125 r2200 999b753
Encoding settings : cabac=1 / ref=9 / deblock=1:-3:-3 / analyse=0x3:0x133 / me=tesa / subme=10 / psy=1 / psy_rd=1.20:0.00 / mixed_ref=1 / me_range=16 / chroma_me=1 / trellis=2 / 8x8dct=1 / cqm=0 / deadzone=21,11 / fast_pskip=0 / chroma_qp_offset=-2 / threads=18 / lookahead_threads=3 / sliced_threads=0 / nr=0 / decimate=0 / interlaced=0 / bluray_compat=0 / constrained_intra=0 / bframes=9 / b_pyramid=2 / b_adapt=2 / b_bias=0 / direct=3 / weightb=1 / open_gop=0 / weightp=2 / keyint=240 / keyint_min=24 / scenecut=40 / intra_refresh=0 / rc_lookahead=80 / rc=2pass / mbtree=1 / bitrate=3500 / ratetol=1.0 / qcomp=0.60 / qpmin=0 / qpmax=69 / qpstep=4 / cplxblur=20.0 / qblur=0.5 / ip_ratio=1.40 / aq=2:0.60
Language : English
Default : Yes
Forced : Yes
Audio #1
ID : 2
Format : DTS
Format/Info : Digital Theater Systems
Codec ID : A_DTS
Duration : 1h 32mn
Bit rate mode : Constant
Bit rate : 1 510 Kbps
Channel(s) : 6 channels
Channel positions : Front: L C R, Side: L R, LFE
Sampling rate : 48.0 KHz
Bit depth : 24 bits
Compression mode : Lossy
Stream size : 999 MiB (23%)
Title : DTS 5.1 @ 1536 kbps - DVO, KvK
Language : Russian
Default : Yes
Forced : Yes
Audio #2
ID : 3
Format : DTS
Format/Info : Digital Theater Systems
Codec ID : A_DTS
Duration : 1h 32mn
Bit rate mode : Constant
Bit rate : 1 510 Kbps
Channel(s) : 6 channels
Channel positions : Front: L C R, Side: L R, LFE
Sampling rate : 48.0 KHz
Bit depth : 24 bits
Compression mode : Lossy
Stream size : 999 MiB (23%)
Title : DTS 5.1 @ 1536 kbps
Language : English
Default : No
Forced : No
Text #1
ID : 4
Format : UTF-8
Codec ID : S_TEXT/UTF8
Codec ID/Info : UTF-8 Plain Text
Title : Forced
Language : Russian
Default : No
Forced : No
Text #2
ID : 5
Format : UTF-8
Codec ID : S_TEXT/UTF8
Codec ID/Info : UTF-8 Plain Text
Title : Full
Language : Russian
Default : No
Forced : No
Text #3
ID : 6
Format : UTF-8
Codec ID : S_TEXT/UTF8
Codec ID/Info : UTF-8 Plain Text
Title : Full
Language : English
Default : No
Forced : No

Скриншоты:

     
Other forum [Profile] [PM]
Similar theme
Forum Topic Author Torrent Replies Last Post
./templates/default/images/folder_dl.gif Справочники, энциклопедии и словари Н.С. Конарев | Железнодорожная Энциклопедия (1995) [DjVu] UndegraundMen
0 | 1

0 | 1157

2

2013-10-07 11:00
UndegraundMen Latest
Display posts from previous:    
Reply to topic

The time now is: Today 04:59

All times are GMT + 3 Hours



You cannot post new topics in this forum
You cannot reply to topics in this forum
You cannot edit your posts in this forum
You cannot delete your posts in this forum
You cannot vote in polls in this forum
You cannot attach files in this forum
You cannot download files in this forum