Today is a free download without charge Download

Женщина в черном / The Woman in Black (Джеймс Уоткинс) [2012 г., ужасы, триллер, драма, BDRip720] Лицензия от R.G. 20th Century Fox

Reply to topic
 
Author
Message

BoxeR ®

Gender:

Longevity: 9 years 2 months

Posts: 423

Торрент-статистика

Post 28-Jun-2012 10:53

[Quote]

Женщина в черном / The Woman in Black-«Только не смотри на нее»- Страна: Швеция, Канада, Великобритания
Жанр: ужасы, триллер, драма
Год выпуска: 2012
Продолжительность: 01:34:25-Перевод: Профессиональный (дублированный) [лицензия]
Cубтитры: нет
Режиссер: Джеймс Уоткинс / James Watkins-В ролях: Дэниэл Рэдклифф, Кьяран Хайндс, Джанет МакТир, Дэвид Бурк, Шон Дули, Эмма Шори, Хэрмон Молли, Софи Стаки, Миша Хэндли, Джессика Рэйне-Описание: На дворе — конец девятнадцатого века, но, хотя люди пользуются автомобилями, железными дорогами, и телеграфом, человек по-прежнему бессилен перед проявлениями сверхъестественного. Молодой лондонский юрист Артур Киппс вынужден оставить своего трехлетнего сына и отправиться в командировку в уединенную северную деревушку, чтобы составить реестр документов, оставшихся от скончавшегося хозяина поместья Ил Марш. Добравшись до места, и пообщавшись с негостеприимными местными жителями, он начинает понимать, что над деревушкой нависла тень мрачной тайны. Когда же рядом со старым кладбищем ему на глаза попадается загадочная женщина, одетая в черное, это малозначительное происшествие знаменует начало череды леденящих кровь смертей в семьях обитателей деревни.-
Ripped by BoxeR
- -Семпл: http://multi-up.com/725485
Качество видео: BDRip 720 | Исходник BDRemux
Формат видео: MKV
Видео: h.264, 1280 x 544 (2.342) at 23.976 fps, 2825 Кбит/сек
Аудио: AC-3 at 448 Кбит/сек, 6 каналов, 48,0 КГц

MediaInfo

Общее
Уникальный идентификатор : 86161658060213873625130982891434520560 (0x40D221B929E039EBEDACC15E9B5FAFF0)
Полное имя : D:\Женщина в чёрном (R.G. 20th Century Fox)_encoded.mkv
Формат : Matroska
Версия формата : Version 2
Размер файла : 2,22 Гбайт
Продолжительность : 1 ч. 35 м.
Общий поток : 3339 Кбит/сек
Программа кодирования : XviD4PSP 6.0 / 53.6.0
Библиотека кодирования : XviD4PSP 6.0 / 53.6.0
Видео
Идентификатор : 1
Формат : AVC
Формат/Информация : Advanced Video Codec
Профиль формата : [email protected]
Параметр CABAC формата : Да
Параметр ReFrames формата : 3 кадра
Идентификатор кодека : V_MPEG4/ISO/AVC
Продолжительность : 1 ч. 35 м.
Битрейт : 2825 Кбит/сек
Номинальный битрейт : 3100 Кбит/сек
Ширина : 1280 пикселей
Высота : 544 пикселя
Соотношение сторон : 2,35:1
Соотношение сторон в оригинале : 2,35:1
Режим частоты кадров : Переменный
Частота кадров : 23,976 кадра/сек
Цветовое пространство : YUV
Субдискретизация насыщенности : 4:2:0
Битовая глубина : 8 бит
Тип развёртки : Прогрессивная
Бит/(Пиксели*Кадры) : 0.169
Размер потока : 1,88 Гбайт (85%)
Заголовок : Denils
Библиотека кодирования : x264 core 116 r2019M 9cc407d
Настройки программы : cabac=1 / ref=3 / deblock=1:-1:-1 / analyse=0x3:0x133 / me=dia / subme=1 / psy=1 / psy_rd=1.00:0.15 / mixed_ref=1 / me_range=16 / chroma_me=1 / trellis=0 / 8x8dct=1 / cqm=0 / deadzone=21,11 / fast_pskip=1 / chroma_qp_offset=0 / threads=6 / sliced_threads=0 / nr=0 / decimate=1 / interlaced=0 / bluray_compat=0 / constrained_intra=0 / bframes=3 / b_pyramid=1 / b_adapt=0 / b_bias=0 / direct=3 / weightb=1 / open_gop=0 / weightp=0 / keyint=230 / keyint_min=23 / scenecut=40 / intra_refresh=0 / rc_lookahead=40 / rc=cbr / mbtree=1 / bitrate=3100 / ratetol=1.0 / qcomp=0.60 / qpmin=10 / qpmax=51 / qpstep=4 / vbv_maxrate=3100 / vbv_bufsize=3100 / nal_hrd=none / ip_ratio=1.40 / aq=1:1.00
Язык : English
Default : Да
Forced : Нет
Аудио
Идентификатор : 2
Формат : AC-3
Формат/Информация : Audio Coding 3
Расширение режима : CM (complete main)
Идентификатор кодека : A_AC3
Продолжительность : 1 ч. 35 м.
Вид битрейта : Постоянный
Битрейт : 448 Кбит/сек
Каналы : 6 каналов
Расположение каналов : Front: L C R, Side: L R, LFE
Частота : 48,0 КГц
Битовая глубина : 16 бит
Метод сжатия : С потерями
Размер потока : 305 Мбайт (13%)
Заголовок : Дубляж
Язык : Russian
Default : Да
Forced : Нет

Скриншоты

       
Other forum [Profile] [PM]
Display posts from previous:    
Reply to topic

The time now is: Today 01:00

All times are GMT + 3 Hours



You cannot post new topics in this forum
You cannot reply to topics in this forum
You cannot edit your posts in this forum
You cannot delete your posts in this forum
You cannot vote in polls in this forum
You cannot attach files in this forum
You cannot download files in this forum