Today is a free download without charge Download

Возвращение (Андрей Звягинцев) [2003, Россия, триллер, драма, детектив, Blu-ray disc 1080p] + Sub Fre, Dut + Original Rus

Reply to topic
 
Author
Message

Omen ®

Longevity: 8 years 10 months

Posts: 181086

Торрент-статистика

Post 28-Nov-2015 21:51

[Quote]

Возвращение
Страна: Россия
Жанр: триллер, драма, детектив
Год выпуска: 2003
Продолжительность: 01:50:22-Перевод: Не требуется-Cубтитры: французские, Голландскиe
Оригинальная аудиодорожка: русский-Режиссер: Андрей Звягинцев-В ролях: Константин Лавроненко, Владимир Гарин, Иван Добронравов, Наталия Вдовина, Елизавета Александрова, Лазарь Дубовик, Любовь Казакова, Галина Попова, Алексей Сукновалов, Андрей Сумин
Описание: В жизни двух братьев неожиданно возникает отец, знакомый им только по фотографии десятилетней давности. Появление странного, чужого для них человека переворачивает их жизнь, когда отец вырывает ребят из привычного существования в тихом родном городе и привозит на заброшенный остров.-Тип релиза: Blu-ray disc
Контейнер: BDMV-Видео: MPEG-4 AVC Video / 22999 kbps / 1080p / 23,976 fps / 16:9 / High Profile 4.1-Аудио 1: DTS-HD Master Audio Russian 1694 kbps 5.1 / 48 kHz / 1694 kbps / 16-bit (DTS Core: 5.1 / 48 kHz / 896 kbps / 16-bit)
Аудио 2:DTS-HD Master Audio French 1181 kbps 2.0 / 48 kHz / 1181 kbps / 16-bit (DTS Core: 2.0 / 48 kHz / 896 kbps / 16-bit)

На диске

Трейлер

BDInfo

DISC INFO:
Disc Title: Возвращение
Disc Size: 24 040 497 846 bytes
Protection: AACS
BD-Java: Yes
BDInfo: 0.5.8
PLAYLIST REPORT:
Name: 00244.MPLS
Length: 1:50:22.615 (h:m:s.ms)
Size: 22 828 093 440 bytes
Total Bitrate: 27,58 Mbps
VIDEO:
Codec Bitrate Description
----- ------- -----------
MPEG-4 AVC Video 22999 kbps 1080p / 23,976 fps / 16:9 / High Profile 4.1
AUDIO:
Codec Language Bitrate Description
----- -------- ------- -----------
DTS-HD Master Audio Russian 1694 kbps 5.1 / 48 kHz / 1694 kbps / 16-bit (DTS Core: 5.1 / 48 kHz / 896 kbps / 16-bit)
DTS-HD Master Audio French 1181 kbps 2.0 / 48 kHz / 1181 kbps / 16-bit (DTS Core: 2.0 / 48 kHz / 896 kbps / 16-bit)
SUBTITLES:
Codec Language Bitrate Description
----- -------- ------- -----------
Presentation Graphics Dutch 12,466 kbps
Presentation Graphics French 13,260 kbps
FILES:
Name Time In Length Size Total Bitrate
---- ------- ------ ---- -------------
00112.M2TS 0:00:00.000 0:08:53.908 1 726 685 184 25 872
00500.M2TS 0:08:53.908 0:00:23.023 82 120 704 28 535
00109.M2TS 0:09:16.931 0:00:25.316 86 673 408 27 388
00110.M2TS 0:09:42.248 0:00:25.066 89 647 104 28 611
00105.M2TS 0:10:07.314 0:24:00.188 5 195 102 208 28 858
00111.M2TS 0:34:07.503 0:00:30.071 126 406 656 33 628
00114.M2TS 0:34:37.575 0:03:16.446 758 851 584 30 903
00101.M2TS 0:37:54.021 0:00:24.190 88 289 280 29 198
00113.M2TS 0:38:18.212 0:01:04.063 186 556 416 23 296
00108.M2TS 0:39:22.276 0:00:23.356 62 502 912 21 408
00103.M2TS 0:39:45.633 0:07:10.430 1 371 015 168 25 482
00115.M2TS 0:46:56.063 0:00:20.770 78 348 288 30 176
00102.M2TS 0:47:16.833 0:00:23.231 90 304 512 31 097
00107.M2TS 0:47:40.065 0:00:20.854 81 364 992 31 213
00106.M2TS 0:48:00.919 1:02:21.696 12 804 225 024 27 376
CHAPTERS:
Number Time In Length Avg Video Rate Max 1-Sec Rate Max 1-Sec Time Max 5-Sec Rate Max 5-Sec Time Max 10Sec Rate Max 10Sec Time Avg Frame Size Max Frame Size Max Frame Time
------ ------- ------ -------------- -------------- -------------- -------------- -------------- -------------- -------------- -------------- -------------- --------------
1 0:00:00.000 0:11:17.635 21 607 kbps 42 538 kbps 00:01:52.153 37 616 kbps 00:08:12.658 34 808 kbps 00:08:12.492 112 640 bytes 589 945 bytes 00:05:21.696
2 0:11:17.635 0:11:12.046 24 445 kbps 40 916 kbps 00:21:44.469 36 456 kbps 00:21:42.342 34 776 kbps 00:21:38.839 127 444 bytes 664 119 bytes 00:22:00.861
3 0:22:29.681 0:15:23.339 25 080 kbps 36 592 kbps 00:36:07.665 32 679 kbps 00:27:20.055 32 334 kbps 00:27:13.506 130 756 bytes 493 726 bytes 00:36:11.586
4 0:37:53.020 0:06:45.071 19 574 kbps 41 143 kbps 00:43:53.422 35 613 kbps 00:43:30.315 34 678 kbps 00:44:14.818 102 049 bytes 740 633 bytes 00:43:54.423
5 0:44:38.091 0:19:49.271 24 551 kbps 43 584 kbps 00:52:44.285 37 263 kbps 00:54:36.689 34 745 kbps 00:54:36.648 128 000 bytes 689 805 bytes 00:54:36.856
6 1:04:27.363 0:14:58.480 26 231 kbps 47 111 kbps 01:07:12.903 36 266 kbps 01:09:39.299 34 268 kbps 01:09:32.668 136 759 bytes 782 800 bytes 01:09:43.178
7 1:19:25.844 0:11:32.233 25 208 kbps 38 355 kbps 01:25:48.434 35 248 kbps 01:25:47.517 34 432 kbps 01:25:40.927 131 422 bytes 622 290 bytes 01:25:59.278
8 1:30:58.077 0:14:03.092 22 389 kbps 43 779 kbps 01:33:26.725 37 625 kbps 01:33:26.225 34 844 kbps 01:33:26.142 116 728 bytes 651 856 bytes 01:33:41.157
9 1:45:01.169 0:05:21.446 3 321 kbps 4 595 kbps 01:49:15.090 4 367 kbps 01:46:57.410 4 321 kbps 01:46:56.409 17 318 bytes 138 171 bytes 01:45:54.222

Скриншоты

Other forum [Profile] [PM]
Display posts from previous:    
Reply to topic

The time now is: Today 13:31

All times are GMT + 3 Hours



You cannot post new topics in this forum
You cannot reply to topics in this forum
You cannot edit your posts in this forum
You cannot delete your posts in this forum
You cannot vote in polls in this forum
You cannot attach files in this forum
You cannot download files in this forum